Гамера: Защитник Вселенной / Gamera daikaijû kuchu kessen (Сюскэ Канэко / Shusuke Kaneko) [1995 г., фэнтези, боевик, триллер, драма, приключения, HDRip] MVO

 

Создавать темы 09-Июл-2016 03:38

-Гамера: Защитник Вселенной / Gamera daikaijû kuchu kessen-- Производство: Япония, Daiei Studios, Hakuhodo Incorporated, NTV Network, ...
Год выпуска: 1995 г.
Жанр: фэнтези, боевик, триллер, драма, приключения
Продолжительность: 01:35:35Мировая премьера: 11 марта 1995
Дата выхода DVD: 30 апреля 2005, «Кармен Видео»
Перевод: Профессиональный (многоголосый, закадровый)
Режиссер: Сюскэ Канэко / Shusuke Kaneko-В ролях: Цуеши Ихара, Акира Онодера, Шинобу Накаяма, Аяко Фуджитани, Юкидзиро Хотару, Хацунори Хасэгава, Хиротаро Хонда, Акира Кубо, Кодзиро Хонго, Такаши Мацуо-Описание: Гигантская огнедышащая суперчерепаха Гамера — мускулистая боевая машина с семидесятиметровым панцирем, защищающая человечество от ужасных тварей, особей и чудовищ из космоса. Гамера — ближайший родственник легендарного Годзиллы и один из самых впечатляющих монстров мирового кино.Только Гамера может спасти Землю от гибели, вступив в битву с новым воплощением гиперзла Вселенной — таинственной расой летающих рептилий-людоедов Гаос, порожденной древнейшими генными технологиями!-
Качество видео: HDRip
Контейнер: AVI
Видео кодек: XviD
Аудио кодек: AC3
Видео: 720x384 (1.88:1), 23.976 fps, XviD build 73 ~1977 kbps avg, 0.30 bit/pixel
Аудио: 48 kHz, AC3 Dolby Digital, 2/0 (L,R) ch, ~192 kbps
Cубтитры: отсутствуют

Рецензия

Суперчерепаха вернулась!На Японию нападают огромные летающие твари — Гяосы и только суперчерепаху Гамера может их остановить. Сюжет очень интересен, сценарий хорошо написан.Монстры. Тут у нас два вида монстров — Гамера и Гяос. Изменилось их происхождение. Но если Гамера защищает людей, то Гяосы хотят их уничтожить. Дизайн Гамеры сильно изменился на фоне эры Сёва. Наша гигантская суперчерепаха стала гораздо реалистичнее. Гамера стала стрелять не пламенем, а огненными шарами. Также ее размер увеличился с 60 метров до 80. Я просто обожаю этот дизайн!Гяосы также претерпели сильное изменение. Их стало очень много. Теперь продолжим про Гяосов. Они стали гораздо реалистичнее. Размах крыльев Гяоса-15 метров. Морадовал огромный Супер-Гяос. Цвет луча Гяоса поменялся с желтого зеленый. Битва Гамеры и Супер-Гяоса очень зрелищна, да и битва Гамеры и Гяосов в деревне смотрится хорошо. Вообще, битвы монстров, да и сами монстры реалистичнее, чем раньше потому, что использовалась компьютерная графика.Спецэффекты. Это первый фильм про Гамеру, где используют CGI. Огненные шары Гамеры и лучи Гяосов сделаны на ура. Взрывы также сделаны весьма добротно. В общем, они отличные для 1995 года.Актерская игра. Актеры играют отлично, справляются с ролями, особенно Синобу Накаяма.Режиссерская работа. В этот раз режиссером второй раз в истории франшизы стал не Нориаки Юаса. Сюскэ Канеко, режиссер фильма, хорошо работал над фильмом, не допустил ни малейшего ляпа.Музыка. В фильме очень хорошо поработали с музыкой, которую написал Ко Отани, который еще напишет музыку к двум следующим частям трилогии про Гамеру.Реалистичность. Как и писалось ранее, это первый фильм про Гамеру с использованием технологии CGI. Гамера выглядит вполне реалистично, а вот с Гяосами стоило постараться получше-сами они нормальные, только вот морды какие-то резиновые у них. Спецэффекты и декорации реалистичны.Отличный фильм про Гамеру. Мне он очень понравился. Всем любителям гигантских монстров к просмотру обязателен. Также в фильме есть мораль:не стоит создавать супероружие, не зная о последствиях. И история с Гяосами-тому доказательство.9,7 из 10

Media Info

oбщее
Полное имя : J:\Гамера\Gamera- Zachitnik Vselennoy.[pirat.ca].avi
Формат : AVI
Формат/Информация : Audio Video Interleave
Размер файла : 1,46 Гбайт
Продолжительность : 1 ч. 35 м.
Общий поток : 2179 Кбит/сек
Название фильма : Gamera- Zachitnik Vselennoy.[pirat.ca]
Программа кодирования : VirtualDubMod 1.5.10.3 | www.virtualdub-fr.org || (build 2550/release)Видео
Идентификатор : 0
Формат : MPEG-4 Visual
Профиль формата : Advanced [email protected]/* */
Параметр BVOP формата : 2
Параметр QPel формата : Нет
Параметр GMC формата : Без точки перехода
Параметр матрицы формата : Выборочная
Идентификатор кодека : XVID
Идентификатор кодека/Подсказка : XviD
Продолжительность : 1 ч. 35 м.
Битрейт : 1978 Кбит/сек
Ширина : 720 пикселей
Высота : 384 пикселя
Соотношение сторон : 1,85:1
Частота кадров : 23,976 (23976/1000) кадра/сек
Цветовое пространство : YUV
Субдискретизация насыщенности : 4:2:0
Битовая глубина : 8 бит
Тип развёртки : Прогрессивная
Метод сжатия : С потерями
Бит/(Пиксели*Кадры) : 0.298
Размер потока : 1,32 Гбайт (91%)
Библиотека кодирования : XviD 73Аудио
Идентификатор : 1
Формат : AC-3
Формат/Информация : Audio Coding 3
Расширение режима : CM (complete main)
Параметр Endianness формата : Big
Идентификатор кодека : 2000
Продолжительность : 1 ч. 35 м.
Вид битрейта : Постоянный
Битрейт : 192 Кбит/сек
Каналы : 2 канала
Расположение каналов : Front: L R
Частота : 48,0 КГц
Частота кадров : 31,250 кадров/сек (1536 spf)
Метод сжатия : С потерями
Размер потока : 131 Мбайт (9%)
Выравнивание : Разделение по промежуткам
Продолжительность промежутка : 42 мс. (1,00 видеокадр)
Время предзагрузки промежутка : 500 мс.

Скриншот c названием фильма

Скриншоты

-Трейлер
Яндекс.Метрика
Рейтинг@Mail.ru