[ Сегодня на трекере фрилич! Идет свободное скачивание без начисления Download ]

Кунг-фу Панда 3 / Kung Fu Panda 3 (Алессандро Карлони / Alessandro Carloni, ...) [2016 г., мультфильм, боевик, комедия, приключения, семейный, BDRip, 1080p] 2xDub (Rus, Ukr) + Original (Eng) + Sub (Rus, Ukr, Eng)

 

Создавать темы 09-Июл-2016 03:31

-Кунг-фу Панда 3 / Kung Fu Panda 3
«Притяженья больше нет»
-- Производство: США, Китай
Год выпуска: 2016 г.
Жанр: мультфильм, боевик, комедия, приключения, семейный
Продолжительность: 01:34:54Перевод: Профессиональный (полное дублирование) [Blu-ray] (Rus)
Перевод 2: Профессиональный (полное дублирование) [Blu-ray] (Ukr)
Оригинальный аудиопоток: английскийРежиссер: Алессандро Карлони / Alessandro Carloni, Дженнифер Ю / Jennifer Yuh Nelson-В ролях: Джек Блэк, Брайан Крэнстон, Дастин Хоффман, Анджелина Джоли, Дж.К. Симмонс, Джеки Чан, Сет Роген, Люси Лью, Дэвид Кросс, Кейт Хадсон-Описание: Воссоединившись со своим давно потерянным отцом, По отправляется в тайный рай для панд, где его ожидает встреча с множеством веселых сородичей. Однако вскоре злодей Кай начинает зачистку - он уничтожает кунг-фу мастеров по всему Китаю.
По предстоит сделать невозможное - обучить боевому искусству деревню, полную его веселых, неуклюжих собратьев, и тем самым превратить их в отряд кунг-фу панд.- - -Качество видео: BDRip
Источник: Kung.Fu.Panda.3.2016.COMPLETE.BLURAY-LAZERS
Контейнер: MKV
Стандарт разрешения: 1080p
Видео кодек: H.264/AVC
Аудио кодек: DTS, AC3, DTS-ES
Видео: 1920x816 at 23.976 fps, ~13.2 Mbps avg
Аудио: Russian: 48 kHz, DTS, 3/2 (L,C,R,l,r) + LFE ch, ~768.00 kbps avg |Дубляж, Blu-ray 3D BALTiC|
Аудио #2: Ukrainian: 48 kHz, AC3, 3/2 (L,C,R,l,r) + LFE ch, ~448.00 kbps avg |Дубляж, Blu-ray 3D BALTiC|
Аудио #3: English: 48 kHz, DTS-ES, 3/3 (L,C,R,l,c,r) + LFE ch, ~1536.00 kbps avgCубтитры: Russian (Forced, iTunes), Russian (iTunes), Ukrainian (iTunes), English (iTunes)

Знаете ли вы, что...

• Кая должен был озвучивать Мадс Миккельсен, но не смог ввиду плотного графика съёмок. В фильме этот персонаж говорит голосом Дж.К. Симмонса.
• Премьерный показ фильма был назначен на 23 декабря 2015 года, но был перенесён на более поздний срок, чтобы избежать конкуренции с выходящим фильмом «Звёздные войны: Пробуждение силы» (2015).
• Компании «DreamWorks Animation» и «Paramount Pictures» прекратили сотрудничество в 2012 году, так что это будет первый фильм серии, распространением которого занимается «20 Century Fox».
• Режиссёр Дженнифер Ю наделила Кая сверхъестественными способностями. Вот как она впоследствии объясняла своё решение: «Тай Лунг был драчуном, лорд Шэнь отличался умом. Что было делать с отрицательным героем третьего фильма? Только дать ему сверхъестественные силы». «Кай» по-японски означает «бог».
• Это первый полнометражный американский анимационный фильм, созданный совместно с китайской студией. Треть фильма была создана в Китае, а всё остальное - на студии «DreamWorks Animation» в США.
• Отец По должен был говорить голосом Джейми Кэмпбелла Бауэра, однако на озвучивание утвердили Брайана Крэнстона. Необходимо отметить, что ни один из них не озвучивал отца По в конце фильма «Кунг-фу Панда 2» (2011). Там этот персонаж говорит голосом Фреда Татаскьора, который также озвучил мастера Шифу в компьютерных играх франшизы и в мультсериале «Кунг-фу Панда: Удивительные легенды» (2011).
• Для Дж.К. Симмонса, голосом которого говорит Кай, это будет первая премьера в 2016 году. Второй станет полнометражный мультфильм «Зверополис».
• В эпизоде, где По обсуждает игру с пандами, четверых животных озвучили дети Анджелины Джоли - сыновья Пакс и Нокс и дочери Шайло и Захара (все носят фамилию Джоли-Питт).

Media Info

Код:
Format                      : Matroska
Format version              : Version 2
File size                   : 10.8 GiB
Duration                    : 1h 34mn
Overall bit rate            : 16.3 Mbps
Movie name                  : Kung Fu Panda 3 (2016) - Release for HDCLUB
Encoded date                : UTC 2016-07-07 20:00:46
Writing application         : mkvmerge v3.4.0 ('Rapunzel') built on May 15 2010 09:38:20
Writing library             : libebml v0.8.0 + libmatroska v0.9.0Video
ID                          : 1
Format                      : AVC
Format/Info                 : Advanced Video Codec
Format profile              : [email protected]/*  */
Format settings, CABAC      : Yes
Format settings, ReFrames   : 5 frames
Codec ID                    : V_MPEG4/ISO/AVC
Duration                    : 1h 34mn
Bit rate                    : 13.2 Mbps
Width                       : 1 920 pixels
Height                      : 816 pixels
Display aspect ratio        : 2.35:1
Frame rate mode             : Constant
Frame rate                  : 23.976 fps
Color space                 : YUV
Chroma subsampling          : 4:2:0
Bit depth                   : 8 bits
Scan type                   : Progressive
Bits/(Pixel*Frame)          : 0.353
Stream size                 : 8.78 GiB (81%)
Title                       : Kung Fu Panda 3 (2016) - Release for HDCLUB
Writing library             : x264 core 148 r2692.11 7386685 VietHD_Custom_64
Encoding settings           : cabac=1 / ref=5 / deblock=1:-3:-3 / analyse=0x3:0x133 / me=umh / subme=10 / psy=1 / fade_compensate=0.00 / psy_rd=0.90:0.00 / mixed_ref=1 / me_range=24 / chroma_me=1 / trellis=2 / 8x8dct=1 / cqm=0 / deadzone=21,11 / fast_pskip=0 / chroma_qp_offset=-2 / threads=12 / lookahead_threads=2 / sliced_threads=0 / nr=0 / decimate=0 / interlaced=0 / bluray_compat=0 / constrained_intra=0 / fgo=0 / bframes=8 / b_pyramid=2 / b_adapt=2 / b_bias=0 / direct=3 / weightb=1 / open_gop=0 / weightp=2 / keyint=250 / keyint_min=23 / scenecut=40 / intra_refresh=0 / rc_lookahead=60 / rc=crf / mbtree=0 / crf=17.0000 / qcomp=0.70 / qpmin=0:0:0 / qpmax=69:69:69 / qpstep=4 / vbv_maxrate=62500 / vbv_bufsize=78125 / crf_max=0.0 / nal_hrd=none / filler=0 / ip_ratio=1.30 / pb_ratio=1.20 / aq=3:0.80 / aq-sensitivity=10.00 / aq-factor=1.00:1.00:1.00 / aq2=0 / aq3=0 / zones=0,555,crf=14.5/1563,1830,crf=15.8/2310,2783,crf=15.8/3000,6930,crf=15.8/7183,7563,crf=15.8/8285,8635,crf=15.8/10367,11390,crf=15.8/17129,17845,crf=15.8/19170,19760,crf=15.8/30450,31431,crf=15.8/33593,37140,crf=15.8/55189,55970,crf=15.8/56837,58390,crf=15.8/59767,60060,crf=15.8/61180,62131,crf=15.8/67323,67431,crf=15.8/68379,74200,crf=15.8/79560,80550,crf=15.8/86832,89307,crf=15.8/91908,92798,crf=15.8/93479,115911,crf=15.5/117350,118530,crf=15.8/124476,136536,crf=22
Language                    : English
Default                     : Yes
Forced                      : No
Matrix coefficients         : BT.709
Color range                 : LimitedAudio #1
ID                          : 2
Format                      : DTS
Format/Info                 : Digital Theater Systems
Mode                        : 16
Format settings, Endianness : Big
Codec ID                    : A_DTS
Duration                    : 1h 34mn
Bit rate mode               : Constant
Bit rate                    : 768 Kbps
Channel(s)                  : 6 channels
Channel positions           : Front: L C R, Side: L R, LFE
Sampling rate               : 48.0 KHz
Bit depth                   : 24 bits
Compression mode            : Lossy
Stream size                 : 521 MiB (5%)
Title                       : DTS 5.1 @ 768 kbps - DUB, Blu-ray 3D BALTiC
Language                    : Russian
Default                     : Yes
Forced                      : NoAudio #2
ID                          : 3
Format                      : AC-3
Format/Info                 : Audio Coding 3
Mode extension              : CM (complete main)
Format settings, Endianness : Big
Codec ID                    : A_AC3
Duration                    : 1h 34mn
Bit rate mode               : Constant
Bit rate                    : 448 Kbps
Channel(s)                  : 6 channels
Channel positions           : Front: L C R, Side: L R, LFE
Sampling rate               : 48.0 KHz
Bit depth                   : 16 bits
Compression mode            : Lossy
Stream size                 : 304 MiB (3%)
Title                       : AC3 5.1 @ 448 kbps - DUB, Blu-ray 3D BALTiC
Language                    : Ukrainian
Default                     : No
Forced                      : NoAudio #3
ID                          : 4
Format                      : DTS
Format/Info                 : Digital Theater Systems
Format profile              : ES
Mode                        : 16
Format settings, Endianness : Big
Codec ID                    : A_DTS
Duration                    : 1h 34mn
Bit rate mode               : Constant
Bit rate                    : 1 509 Kbps
Channel(s)                  : 6 channels
Channel positions           : Front: L C R, Side: L R, LFE
Sampling rate               : 48.0 KHz
Bit depth                   : 24 bits
Compression mode            : Lossy
Delay relative to video     : 11ms
Stream size                 : 1.00 GiB (9%)
Title                       : DTS-ES 5.1 @ 1536 kbps
Language                    : English
Default                     : No
Forced                      : NoText #1
ID                          : 5
Format                      : UTF-8
Codec ID                    : S_TEXT/UTF8
Codec ID/Info               : UTF-8 Plain Text
Title                       : Forced, iTunes
Language                    : Russian
Default                     : Yes
Forced                      : NoText #2
ID                          : 6
Format                      : UTF-8
Codec ID                    : S_TEXT/UTF8
Codec ID/Info               : UTF-8 Plain Text
Title                       : iTunes
Language                    : Russian
Default                     : No
Forced                      : NoText #3
ID                          : 7
Format                      : UTF-8
Codec ID                    : S_TEXT/UTF8
Codec ID/Info               : UTF-8 Plain Text
Title                       : iTunes
Language                    : Ukrainian
Default                     : No
Forced                      : NoText #4
ID                          : 8
Format                      : UTF-8
Codec ID                    : S_TEXT/UTF8
Codec ID/Info               : UTF-8 Plain Text
Title                       : iTunes
Language                    : English
Default                     : No
Forced                      : NoMenu
00:00:00.000                : en:00:00:00.000
00:05:21.780                : en:00:05:21.780
00:08:10.240                : en:00:08:10.240
00:10:00.016                : en:00:10:00.016
00:12:26.037                : en:00:12:26.037
00:15:24.215                : en:00:15:24.215
00:19:08.230                : en:00:19:08.230
00:24:39.395                : en:00:24:39.395
00:30:17.607                : en:00:30:17.607
00:33:53.990                : en:00:33:53.990
00:36:18.259                : en:00:36:18.259
00:39:55.643                : en:00:39:55.643
00:43:32.652                : en:00:43:32.652
00:46:45.845                : en:00:46:45.845
00:51:41.181                : en:00:51:41.181
00:56:04.611                : en:00:56:04.611
00:59:48.168                : en:00:59:48.168
01:02:11.353                : en:01:02:11.353
01:05:26.965                : en:01:05:26.965
01:10:16.838                : en:01:10:16.838
01:14:06.901                : en:01:14:06.901
01:17:06.580                : en:01:17:06.580
01:20:34.788                : en:01:20:34.788
01:24:21.181                : en:01:24:21.181

Скриншот c названием фильма

Скриншоты

Яндекс.Метрика
Рейтинг@Mail.ru