Женщины в беде / Women in Trouble (Себастьян Гутьеррес / Sebastian Gutierrez) [2009 г., драма, комедия, BDRip-AVC, 720p] MVO [Союз-Видео] + MVO [Украинский] + Sub (Rus)

 

Создавать темы 09-Июл-2016 03:29

-Женщины в беде / Women in Trouble-- Производство: США, Gato Negro Films
Год выпуска: 2009 г.
Жанр: драма, комедия
Продолжительность: 01:35:22Мировая премьера: 15 марта 2009
Дата выхода DVD: 16 сентября 2010, «Союз-Видео»
Перевод: Профессиональный (многоголосый, закадровый) [Союз-Видео]
Перевод 2: Профессиональный (многоголосый, закадровый) [Украинский]
Режиссер: Себастьян Гутьеррес / Sebastian Gutierrez-В ролях: Карла Гуджино, Эдрианн Палики, Конни Бриттон, Кэйтлин Китс, Изабелла Гутьеррез, Саймон Бэйкер, Сара Кларк, Эммануэль Шрики, Антонио Грана-Описание: Провокационная комедия Себастьяна Гутьерреса об одном дне из жизни нескольких совершенно разных женщин, среди которых: порнозвезда, стюардесса, психиатр, массажистка, официантка и пара девушек по вызову. Всех их объединяет одна вещь — проблема. Пути этих женщин случайным образом пересекаются, и такая встреча чем-то помогает каждой из них…-
Качество видео: BDRip-AVC
Контейнер: MKV
Стандарт разрешения: 720p
Видео кодек: MPEG4 AVC
Аудио кодек: AC3
Видео: MPEG-4 AVC, 2454 Кбит/с, 1024x576, 23.976 кадр/с
Аудио: Русский (AC3, 6 ch, 448 Кбит/с) / Профессиональный многоголосый (Союз-Видео)
Аудио #2: Украинский (AC3, 2 ch, 192 Кбит/с)
Cубтитры: русские
Формат субтитров: softsub (SRT)
Доп. информация о субтитрах: включаемые

Рецензия

расскажи мне о себеКино о чисто женских проблемах — неудавшаяся жизнь, опротивевшая работа, неожиданное известие о беременности, безответная любовь, предательство близкого человека.. . И решаются эти проблемы опять же, чисто по-женски — со слезами (трогательными рыданиями в туалете), с разговорами по душам и горькими признаниями. И в конце все счастливы более-менее, так или иначе.Вообще, это кино, видимо, изначально задумывалось как комедия. Комедии не вышло. Вышла немножко грустная история в стиле «один день из жизни женщины».

Media Info

Общее
Уникальный идентификатор : 246966978634676201545027811799925227716 (0xB9CC1C253509F5729E9137DAA29F80C4)
Полное имя : J:\Женщины в беде\Zhenchiny v bede.2009.BDRip-AVC.[pirat.ca].mkv
Формат : Matroska
Версия формата : Version 2
Размер файла : 2,06 Гбайт
Продолжительность : 1 ч. 35 м.
Общий поток : 3096 Кбит/сек
Дата кодирования : UTC 2016-07-08 12:34:36
Программа кодирования : mkvmerge v5.3.0 ('I could have danced') built on Feb 9 2012 10:38:07
Библиотека кодирования : libebml v1.2.3 + libmatroska v1.3.0Видео
Идентификатор : 1
Формат : AVC
Формат/Информация : Advanced Video Codec
Профиль формата : [email protected]/* */
Параметр CABAC формата : Да
Параметр ReFrames формата : 8 кадров
Идентификатор кодека : V_MPEG4/ISO/AVC
Продолжительность : 1 ч. 35 м.
Битрейт : 2454 Кбит/сек
Ширина : 1024 пикселя
Высота : 576 пикселей
Соотношение сторон : 16:9
Режим частоты кадров : Постоянный
Частота кадров : 23,976 (24000/1001) кадра/сек
Цветовое пространство : YUV
Субдискретизация насыщенности : 4:2:0
Битовая глубина : 8 бит
Тип развёртки : Прогрессивная
Бит/(Пиксели*Кадры) : 0.174
Размер потока : 1,60 Гбайт (77%)
Библиотека кодирования : x264 core 125 r2208 d9d2288
Настройки программы : cabac=1 / ref=8 / deblock=1:-2:-2 / analyse=0x3:0x133 / me=umh / subme=11 / psy=1 / psy_rd=1.00:0.20 / mixed_ref=1 / me_range=48 / chroma_me=1 / trellis=2 / 8x8dct=1 / cqm=0 / deadzone=21,11 / fast_pskip=0 / chroma_qp_offset=-3 / threads=3 / lookahead_threads=1 / sliced_threads=0 / nr=0 / decimate=0 / interlaced=0 / bluray_compat=0 / constrained_intra=0 / bframes=8 / b_pyramid=2 / b_adapt=2 / b_bias=0 / direct=3 / weightb=1 / open_gop=0 / weightp=2 / keyint=240 / keyint_min=23 / scenecut=40 / intra_refresh=0 / rc=2pass / mbtree=0 / bitrate=2454 / ratetol=1.0 / qcomp=0.60 / qpmin=0 / qpmax=69 / qpstep=4 / cplxblur=20.0 / qblur=0.5 / ip_ratio=1.40 / pb_ratio=1.30 / aq=1:1.00
Язык : English
Default : Да
Forced : НетАудио #1
Идентификатор : 2
Формат : AC-3
Формат/Информация : Audio Coding 3
Расширение режима : CM (complete main)
Параметр Endianness формата : Big
Идентификатор кодека : A_AC3
Продолжительность : 1 ч. 35 м.
Вид битрейта : Постоянный
Битрейт : 448 Кбит/сек
Каналы : 6 каналов
Расположение каналов : Front: L C R, Side: L R, LFE
Частота : 48,0 КГц
Частота кадров : 31,250 кадров/сек (1536 spf)
Метод сжатия : С потерями
Размер потока : 306 Мбайт (14%)
Язык : Russian
Default : Да
Forced : НетАудио #2
Идентификатор : 3
Формат : AC-3
Формат/Информация : Audio Coding 3
Расширение режима : CM (complete main)
Параметр Endianness формата : Big
Идентификатор кодека : A_AC3
Продолжительность : 1 ч. 35 м.
Вид битрейта : Постоянный
Битрейт : 192 Кбит/сек
Каналы : 2 канала
Расположение каналов : Front: L R
Частота : 48,0 КГц
Частота кадров : 31,250 кадров/сек (1536 spf)
Метод сжатия : С потерями
Размер потока : 131 Мбайт (6%)
Язык : Ukrainian
Default : Нет
Forced : НетТекст
Идентификатор : 4
Формат : UTF-8
Идентификатор кодека : S_TEXT/UTF8
Идентификатор кодека/Информация : UTF-8 Plain Text
Язык : Russian
Default : Да
Forced : Нет

Скриншот c названием фильма

Скриншоты

-Трейлер
Яндекс.Метрика
Рейтинг@Mail.ru