[ Сегодня на трекере фрилич! Идет свободное скачивание без начисления Download ]

Чистое искусство (Ренат Давлетьяров) [2016 г., триллер, детектив, WEB-DLRip] Original (RUS)

 

Создавать темы 09-Июл-2016 03:24

--Чистое искусство--«....требует жертв»-- Производство: Россия, Кинокомпания «Реал-Дакота»
Год выпуска: 2016 г.
Жанр: триллер, детектив
Продолжительность: 01:28:34--Российская премьера: 9 июня 2016, «25th Floor Film»--Режиссер: Ренат Давлетьяров--В ролях: Анна Чиповская, Пётр Фёдоров, Константин Юшкевич, Илья Любимов, Дмитрий Брауэр, Александр Яценко, Алексей Барабаш, Леонид Мозговой, Людмила Чурсина, Анатолий Белый--Описание: «Ты живешь свою жизнь, думаешь про завтра и не знаешь, что кто-то чужой уже влез в твою жизнь и все в ней зачеркнул…»
Саша — известный фотограф. Она молода и красива. Неожиданно ее счастливая жизнь рушится. Она становится свидетелем загадочного убийства и тут же оказывается вовлеченной в криминальную аферу, связанную с живописью и большими деньгами. Теперь кажется, что весь мир против нее — за ней охотятся и хотят убить. Пытаясь понять, что с ней происходит, Саша не готова сдаваться. Движимая стремлением разгадать тайну, она начинает свое расследование…-- --Качество видео: WEB-DLRip
Контейнер: AVI
Видео кодек: XviD
Аудио кодек: AC3
Видео: 720x400 (1.80:1), 25 fps, XviD build 50 ~2006 kbps avg, 0.28 bit/pixel
Аудио: 48 kHz, AC3 Dolby Digital, 2/0 (L,R) ch, ~192 kbpsCубтитры: отсутствуют

Media Info

Общее
Полное имя : H:\Torrent2\Chistoe.iskysstvo.2O16.O.WEBDLRip.1400MB.avi
Формат : AVI
Формат/Информация : Audio Video Interleave
Размер файла : 1,37 Гбайт
Продолжительность : 1 ч. 28 м.
Общий поток : 2209 Кбит/сек
Программа кодирования : VirtualDubMod 1.5.10.3 | www.virtualdub-fr.org || (build 2550/release)
Библиотека кодирования : VirtualDubMod build 2550/releaseВидео
Идентификатор : 0
Формат : MPEG-4 Visual
Профиль формата : Advanced [email protected]/* */
Параметр BVOP формата : 2
Параметр QPel формата : Нет
Параметр GMC формата : Без точки перехода
Параметр матрицы формата : Default (MPEG)
Идентификатор кодека : XVID
Идентификатор кодека/Подсказка : XviD
Продолжительность : 1 ч. 28 м.
Битрейт : 2007 Кбит/сек
Ширина : 720 пикселей
Высота : 400 пикселей
Соотношение сторон : 16:9
Частота кадров : 25,000 кадров/сек
Цветовое пространство : YUV
Субдискретизация насыщенности : 4:2:0
Битовая глубина : 8 бит
Тип развёртки : Прогрессивная
Метод сжатия : С потерями
Бит/(Пиксели*Кадры) : 0.279
Размер потока : 1,24 Гбайт (91%)
Библиотека кодирования : XviD 1.2.1 (UTC 2008-12-04)Аудио
Идентификатор : 1
Формат : AC-3
Формат/Информация : Audio Coding 3
Расширение режима : CM (complete main)
Параметр Endianness формата : Big
Идентификатор кодека : 2000
Продолжительность : 1 ч. 28 м.
Вид битрейта : Постоянный
Битрейт : 192 Кбит/сек
Каналы : 2 канала
Расположение каналов : Front: L R
Частота : 48,0 КГц
Частота кадров : 31,250 кадров/сек (1536 spf)
Метод сжатия : С потерями
Размер потока : 122 Мбайт (9%)
Выравнивание : Разделение по промежуткам
Продолжительность промежутка : 40 мс. (1,00 видеокадр)
Время предзагрузки промежутка : 500 мс.

Скриншоты

Трейлер
Яндекс.Метрика
Рейтинг@Mail.ru