[ Сегодня на трекере фрилич! Идет свободное скачивание без начисления Download ]

Новогодняя ночь (Ольга Ходатаева, Петр Носов) [1948 г., мультфильм, короткометражка, DVDRip] Реставрация

 

Создавать темы 01-Янв-2014 21:29

-Новогодняя ночь-- Производство: СССР
Год выпуска: 1948 г.
Жанр: мультфильм, короткометражка
Продолжительность: 00:10:08-Режиссер: Ольга Ходатаева, Петр Носов-Описание: Предновогодние приключения Деда Мороза, нашедшего елку для детей.- -Качество видео: DVDRip
Контейнер: AVI
Видео кодек: XviD
Аудио кодек: AC3
Видео: 704x528, 25.000 fps, 2094 kbps avg, 0.225 bit/pixel
Аудио: 48 kHz, AC3 Dolby Digital, 3/2 (L,C,R,l,r) + LFE ch, ~448 kbps
Cубтитры: отсутствуют-

Media Info

Общее
Полное имя : C:\Users\Роман\Pictures\Заказ\Novogodnya.Noch.1948.DVDRip.[pirat.ca].avi
Формат : AVI
Формат/Информация : Audio Video Interleave
Размер файла : 185 Мбайт
Продолжительность : 10 м.
Общий поток : 2551 Кбит/сек
Название фильма : Novogodnya.Noch.1948.DVDRip.[pirat.ca]
Программа кодирования : VirtualDubMod 1.5.10.3 | www.virtualdub-fr.org || (build 2550/release)
Правообладатель : http://pirat.ca
Видео
Идентификатор : 0
Формат : MPEG-4 Visual
Профиль формата : Advanced [email protected]
Параметр BVOP формата : 2
Параметр QPel формата : Нет
Параметр GMC формата : Без точки перехода
Параметр матрицы формата : Default (MPEG)
Идентификатор кодека : XVID
Идентификатор кодека/Подсказка : XviD
Продолжительность : 10 м.
Битрейт : 2094 Кбит/сек
Ширина : 704 пикселя
Высота : 528 пикселей
Соотношение сторон : 4:3
Частота кадров : 25,000 кадров/сек
Цветовое пространство : YUV
Субдискретизация насыщенности : 4:2:0
Битовая глубина : 8 бит
Тип развёртки : Прогрессивная
Метод сжатия : С потерями
Бит/(Пиксели*Кадры) : 0.225
Размер потока : 152 Мбайт (82%)
Библиотека кодирования : XviD 65
Аудио
Идентификатор : 1
Формат : AC-3
Формат/Информация : Audio Coding 3
Расширение режима : CM (complete main)
Параметр Endianness формата : Big
Идентификатор кодека : 2000
Продолжительность : 10 м.
Вид битрейта : Постоянный
Битрейт : 448 Кбит/сек
Каналы : 6 каналов
Расположение каналов : Front: L C R, Side: L R, LFE
Частота : 48,0 КГц
Битовая глубина : 16 бит
Метод сжатия : С потерями
Размер потока : 32,5 Мбайт (18%)
Выравнивание : Разделение по промежуткам
Продолжительность промежутка : 40 мс. (1,00 видеокадр)
Время предзагрузки промежутка : 500 мс.
-

Скриншот c названием фильма

-

Скриншоты

-
Яндекс.Метрика
Рейтинг@Mail.ru