Кунг-фу Панда 3 / Kung Fu Panda 3 (Alessandro Carloni, Jennifer Yuh / Алессандро Карлони, Дженнифер Ю) [2016 г., мультфильм, боевик, комедия, приключения, семейный, BDRip-AVC] Dub [Лицензия] + Original (Eng) + Sub (Rus, Ukr, Eng)

 

Создавать темы 09-Июл-2016 03:10

--Кунг-фу Панда 3 / Kung Fu Panda 3--«Притяженья больше нет»-- Производство: Китай, США / China Film Co., DreamWorks Animation, Oriental DreamWorks
Год выпуска: 2016 г.
Жанр: мультфильм, боевик, комедия, приключения, семейный
Продолжительность: 01:34:54--Мировая премьера: 16 января 2016
Российская премьера: 28 января 2016, «Двадцатый Век Фокс СНГ»--Перевод: Профессиональный (полное дублирование) [Лицензия BD EUR]
Оригинальный аудиопоток: английский--Режиссер: Alessandro Carloni, Jennifer Yuh / Алессандро Карлони, Дженнифер Ю--В ролях: Джек Блэк, Брайан Крэнстон, Дастин Хоффман, Анджелина Джоли, Дж.К. Симмонс, Джеки Чан, Сет Роген, Люси Лью, Дэвид Кросс, Кейт Хадсон--Описание: Воссоединившись со своим давно потерянным отцом, По отправляется в тайный рай для панд, где его ожидает встреча с множеством веселых сородичей. Однако вскоре злодей Кай начинает зачистку — он уничтожает кунг-фу мастеров по всему Китаю. По предстоит сделать невозможное — обучить боевому искусству деревню, полную его веселых, неуклюжих собратьев, и тем самым превратить их в отряд кунг-фу панд.-- --Качество видео: BDRip-AVC
Контейнер: MKV
Видео кодек: AVC/H.264
Аудио кодек: AC3
Видео: AVC, 1120x476, 2987 kbps, 23,976 fps, 0.228 bpp
Аудио 1: 48 kHz, AC3 Dolby Digital, 3/2 (L,C,R,l,r) + LFE ch, ~448 kbps RUS
Аудио 2: 48 kHz, AC3 Dolby Digital, 3/2 (L,C,R,l,r) + LFE ch, ~448 kbps ENGCубтитры: русские (полные: BD, iTunes, форсированные), украинские (полные: BD, iTunes, форсированные), английские (полные х2, SDH, SDH цветные).

Media Info

Общее
Уникальный идентификатор : 174670842060170230023208179955691472000 (0x836861695534C2E7A5812E10EC14C480)
Полное имя : H:\Torrent2\Kung.Fu.Panda.3.2016.BDRip-AVC.Rus.Eng.mkv
Формат : Matroska
Версия формата : Version 4 / Version 2
Размер файла : 2,58 Гбайт
Продолжительность : 1 ч. 34 м.
Общий поток : 3887 Кбит/сек
Дата кодирования : UTC 2016-07-08 17:01:35
Программа кодирования : mkvmerge v9.0.1 ('Obstacles') 64bit
Библиотека кодирования : libebml v1.3.3 + libmatroska v1.4.4
Обложка : Yes
Attachments : cover.jpgВидео
Идентификатор : 1
Формат : AVC
Формат/Информация : Advanced Video Codec
Профиль формата : [email protected]/* */
Параметр CABAC формата : Да
Параметр ReFrames формата : 14 кадров
Идентификатор кодека : V_MPEG4/ISO/AVC
Продолжительность : 1 ч. 34 м.
Битрейт : 2987 Кбит/сек
Ширина : 1120 пикселей
Высота : 476 пикселей
Соотношение сторон : 2,35:1
Режим частоты кадров : Постоянный
Частота кадров : 23,976 (24000/1001) кадра/сек
Цветовое пространство : YUV
Субдискретизация насыщенности : 4:2:0
Битовая глубина : 8 бит
Тип развёртки : Прогрессивная
Бит/(Пиксели*Кадры) : 0.234
Размер потока : 1,98 Гбайт (77%)
Библиотека кодирования : x264 core 148 r2692+54 69a6f49 t_mod_Custom [[email protected]/* */ X86_64]
Настройки программы : cabac=1 / ref=14 / deblock=1:-2:-1 / analyse=0x3:0x113 / me=umh / subme=10 / psy=1 / fade_compensate=0.00 / psy_rd=0.75:0.00 / mixed_ref=1 / me_range=32 / chroma_me=1 / trellis=2 / 8x8dct=1 / cqm=0 / deadzone=21,11 / fast_pskip=0 / chroma_qp_offset=-2 / threads=6 / lookahead_threads=2 / sliced_threads=0 / nr=0 / decimate=1 / interlaced=0 / bluray_compat=0 / constrained_intra=0 / fgo=0 / bframes=11 / b_pyramid=2 / b_adapt=2 / b_bias=0 / direct=3 / weightb=1 / open_gop=0 / weightp=2 / keyint=230 / keyint_min=23 / scenecut=40 / intra_refresh=0 / rc_lookahead=80 / rc=crf / mbtree=0 / crf=17.5000 / qcomp=0.70 / qpmin=0:0:0 / qpmax=69:69:69 / qpstep=4 / vbv_maxrate=20000 / vbv_bufsize=25000 / crf_max=0.0 / nal_hrd=none / filler=0 / ip_ratio=1.40 / pb_ratio=1.30 / aq=3:0.70 / aq-sensitivity=10.00 / aq-factor=1.00:1.00:1.00 / aq2=0 / aq3=0
Язык : English
Default : Да
Forced : НетАудио #1
Идентификатор : 2
Формат : AC-3
Формат/Информация : Audio Coding 3
Расширение режима : CM (complete main)
Параметр Endianness формата : Big
Идентификатор кодека : A_AC3
Продолжительность : 1 ч. 34 м.
Вид битрейта : Постоянный
Битрейт : 448 Кбит/сек
Каналы : 6 каналов
Расположение каналов : Front: L C R, Side: L R, LFE
Частота : 48,0 КГц
Частота кадров : 31,250 кадров/сек (1536 spf)
Метод сжатия : С потерями
Размер потока : 304 Мбайт (12%)
Заголовок : АС3 5.1 @ 448 kbps - Dub, BD EUR
Язык : Russian
Default : Нет
Forced : НетАудио #2
Идентификатор : 3
Формат : AC-3
Формат/Информация : Audio Coding 3
Расширение режима : CM (complete main)
Параметр Endianness формата : Big
Идентификатор кодека : A_AC3
Продолжительность : 1 ч. 34 м.
Вид битрейта : Постоянный
Битрейт : 448 Кбит/сек
Каналы : 6 каналов
Расположение каналов : Front: L C R, Side: L R, LFE
Частота : 48,0 КГц
Частота кадров : 31,250 кадров/сек (1536 spf)
Метод сжатия : С потерями
Размер потока : 304 Мбайт (12%)
Заголовок : АС3 5.1 @ 448 kbps - Original
Язык : English
Default : Нет
Forced : НетТекст #1
Идентификатор : 4
Формат : UTF-8
Идентификатор кодека : S_TEXT/UTF8
Идентификатор кодека/Информация : UTF-8 Plain Text
Продолжительность : 1 ч. 34 м.
Битрейт : 77 бит/сек
Count of elements : 1260
Размер потока : 53,2 Кбайт (0%)
Заголовок : Full, BD
Язык : Russian
Default : Нет
Forced : НетТекст #2
Идентификатор : 5
Формат : UTF-8
Идентификатор кодека : S_TEXT/UTF8
Идентификатор кодека/Информация : UTF-8 Plain Text
Продолжительность : 1 ч. 34 м.
Битрейт : 76 бит/сек
Count of elements : 1260
Размер потока : 53,0 Кбайт (0%)
Заголовок : Full, iTunes
Язык : Russian
Default : Нет
Forced : НетТекст #3
Идентификатор : 6
Формат : UTF-8
Идентификатор кодека : S_TEXT/UTF8
Идентификатор кодека/Информация : UTF-8 Plain Text
Продолжительность : 1 ч. 19 м.
Битрейт : 0 бит/сек
Count of elements : 2
Размер потока : 36,0 байт (0%)
Заголовок : Forced
Язык : Russian
Default : Нет
Forced : НетТекст #4
Идентификатор : 7
Формат : UTF-8
Идентификатор кодека : S_TEXT/UTF8
Идентификатор кодека/Информация : UTF-8 Plain Text
Продолжительность : 1 ч. 34 м.
Битрейт : 80 бит/сек
Count of elements : 1266
Размер потока : 55,8 Кбайт (0%)
Заголовок : Full, BD
Язык : Ukrainian
Default : Нет
Forced : НетТекст #5
Идентификатор : 8
Формат : UTF-8
Идентификатор кодека : S_TEXT/UTF8
Идентификатор кодека/Информация : UTF-8 Plain Text
Продолжительность : 1 ч. 22 м.
Битрейт : 91 бит/сек
Count of elements : 1265
Размер потока : 55,5 Кбайт (0%)
Заголовок : Full, iTunes
Язык : Ukrainian
Default : Нет
Forced : НетТекст #6
Идентификатор : 9
Формат : UTF-8
Идентификатор кодека : S_TEXT/UTF8
Идентификатор кодека/Информация : UTF-8 Plain Text
Продолжительность : 1 ч. 19 м.
Битрейт : 0 бит/сек
Count of elements : 2
Размер потока : 38,0 байт (0%)
Заголовок : Forced
Язык : Ukrainian
Default : Нет
Forced : НетТекст #7
Идентификатор : 10
Формат : UTF-8
Идентификатор кодека : S_TEXT/UTF8
Идентификатор кодека/Информация : UTF-8 Plain Text
Продолжительность : 1 ч. 29 м.
Битрейт : 56 бит/сек
Count of elements : 1471
Размер потока : 36,8 Кбайт (0%)
Заголовок : Full, V1
Язык : English
Default : Нет
Forced : НетТекст #8
Идентификатор : 11
Формат : UTF-8
Идентификатор кодека : S_TEXT/UTF8
Идентификатор кодека/Информация : UTF-8 Plain Text
Продолжительность : 1 ч. 21 м.
Битрейт : 56 бит/сек
Count of elements : 1263
Размер потока : 33,8 Кбайт (0%)
Заголовок : Full, V2
Язык : English
Default : Нет
Forced : НетТекст #9
Идентификатор : 12
Формат : UTF-8
Идентификатор кодека : S_TEXT/UTF8
Идентификатор кодека/Информация : UTF-8 Plain Text
Продолжительность : 1 ч. 29 м.
Битрейт : 64 бит/сек
Count of elements : 1777
Размер потока : 42,4 Кбайт (0%)
Заголовок : SDH
Язык : English
Default : Нет
Forced : НетТекст #10
Идентификатор : 13
Формат : UTF-8
Идентификатор кодека : S_TEXT/UTF8
Идентификатор кодека/Информация : UTF-8 Plain Text
Продолжительность : 1 ч. 29 м.
Битрейт : 87 бит/сек
Count of elements : 1777
Размер потока : 57,7 Кбайт (0%)
Заголовок : SDH Colored
Язык : English
Default : Нет
Forced : НетМеню
00:00:00.000 : :Chapter 01
00:05:21.779 : :Chapter 03
00:08:10.239 : :Chapter 05
00:10:00.016 : :Chapter 07
00:12:26.036 : :Chapter 09
00:15:24.214 : :Chapter 11
00:19:08.230 : :Chapter 13
00:24:39.394 : :Chapter 15
00:30:17.607 : :Chapter 17
00:33:53.990 : :Chapter 19
00:36:18.259 : :Chapter 21
00:39:55.643 : :Chapter 23
00:43:32.651 : :Chapter 25
00:46:45.844 : :Chapter 27
00:51:41.181 : :Chapter 29
00:56:04.611 : :Chapter 31
00:59:48.167 : :Chapter 33
01:02:11.310 : :Chapter 35
01:05:26.964 : :Chapter 37
01:10:16.837 : :Chapter 39
01:14:06.900 : :Chapter 41
01:17:06.580 : :Chapter 43
01:20:34.788 : :Chapter 45
01:24:21.181 : :Chapter 47
01:34:54.438 : :Chapter 49

Скриншоты

Трейлер
Яндекс.Метрика
Рейтинг@Mail.ru