Драконы и всадники Олуха / Dragons: Riders of Berk / Сезон: 2 / Серии: 1-11 из 20 (Джон Санфорд, Луи Дел Кармен / John Sanford, Louie del Carmen) [2013 г., фэнтази, WEB-DLRip] VO [Хихикающий доктор] + Original (Eng) + Sub (Rus, Eng)

 

Создавать темы 01-Янв-2014 19:01

-Драконы и всадники Олуха / Dragons: Riders of Berk-Серии 1-11 из 20- Производство: США
Режиссер: Джон Санфорд, Луи Дел Кармен / John Sanford, Louie del Carmen
Жанр: фэнтези
Год выпуска: 2013 г.
Продолжительность: 11 серий по 00:22:00
Перевод: Любительский (одноголосый, закадровый) [Хихикающий доктор]
Роли озвучивали: Джей Барушель, Америка Феррера, Кристофер Минц-Плассе, Джули Маркус, Зак Перлман-Описание: Продолжение приключений Иккинга и его дракона Беззубика на острове Олух вместе с группой драконьих тренеров, каждый из которых теперь имеет своего собственного дракона. Сериал начинается после событий полнометражного фильма "Как приручить дракона", и отправляет Иккинга, его верного дракона Беззубика и остальных ребят в другие места, где они откроют совершенно новых драконов, найдут новые приключения и будут сражаться с новыми злодеями.-Качество видео: WEB-DLRip
Контейнер: AVI
Видео кодек: XviD
Аудио кодек: AC3
Видео: 720x400 (16:9), 23.976 fps, XviD 65 ~1770 kbps avg, 0.267 bit/pixel
Аудио: Аудио 1: 48 kHz, 2/0 (L,R) ch, 192 kbps Constant |Одноголосный закадровый, Хихикающий доктор|
Аудио : 2: 48 kHz, 2/0 (L,R) ch, 192 kbps Constant |Оригинал|
Cубтитры: русские, английские (внешние)

Media Info

Формат : AVI
Формат/Информация : Audio Video Interleave
Размер файла : 351 Мбайт
Продолжительность : 22 м.
Общий поток : 2172 Кбит/сек
Программа кодирования : VirtualDubModRus 1.5.10.2 (build 2542/release)
Библиотека кодирования : VirtualDubMod build 2542/release
Видео
Идентификатор : 0
Формат : MPEG-4 Visual
Профиль формата : Advanced [email protected]
Параметр BVOP формата : 1
Параметр QPel формата : Нет
Параметр GMC формата : Без точки перехода
Параметр матрицы формата : Выборочная
Идентификатор кодека : XVID
Идентификатор кодека/Подсказка : XviD
Продолжительность : 22 м.
Битрейт : 1774 Кбит/сек
Ширина : 720 пикселей
Высота : 400 пикселей
Соотношение сторон : 16:9
Частота кадров : 23,976 кадра/сек
Цветовое пространство : YUV
Субдискретизация насыщенности : 4:2:0
Битовая глубина : 8 бит
Тип развёртки : Прогрессивная
Метод сжатия : С потерями
Бит/(Пиксели*Кадры) : 0.257
Размер потока : 287 Мбайт (82%)
Библиотека кодирования : XviD 65
Аудио #1
Идентификатор : 1
Формат : AC-3
Формат/Информация : Audio Coding 3
Расширение режима : CM (complete main)
Параметр Endianness формата : Big
Идентификатор кодека : 2000
Продолжительность : 22 м.
Вид битрейта : Постоянный
Битрейт : 192 Кбит/сек
Каналы : 2 канала
Расположение каналов : Front: L R
Частота : 48,0 КГц
Битовая глубина : 16 бит
Метод сжатия : С потерями
Размер потока : 31,1 Мбайт (9%)
Выравнивание : Разделение по промежуткам
Продолжительность промежутка : 42 мс. (1,00 видеокадр)
Время предзагрузки промежутка : 500 мс.
Аудио #2
Идентификатор : 2
Формат : AC-3
Формат/Информация : Audio Coding 3
Расширение режима : CM (complete main)
Параметр Endianness формата : Big
Идентификатор кодека : 2000
Продолжительность : 22 м.
Вид битрейта : Постоянный
Битрейт : 192 Кбит/сек
Каналы : 2 канала
Расположение каналов : Front: L R
Частота : 48,0 КГц
Битовая глубина : 16 бит
Метод сжатия : С потерями
Размер потока : 31,1 Мбайт (9%)
Выравнивание : Разделение по промежуткам
Продолжительность промежутка : 42 мс. (1,00 видеокадр)
Время предзагрузки промежутка : 500 мс.

Скриншоты

Внимание! Раздача ведётся путём добавления новых серий!

Как докачать новую серию

Раздача ведётся путём добавления новых серий; при каждом добавлении создаётся новый торрент. Чтобы начать докачку новой серии, пользователям необходимо сделать следующее:
1. Остановить скачивание,
2. Удалить старый торрент у себя из клиента (старые серии удалять не надо),
3. Скачать новый торрент и запустить его у себя в клиенте вместо старого, при этом указать клиенту путь в старую папку куда и должно происходить скачивание новых серий.
Ваш клиент при этом должен произвести хеширование (проверку) старой папки (если не производит сам - помогите ему сделать это), и будет докачивать только те серии которых у вас ещё нет. Старые серии при этом не удаляются, а продолжают раздаваться!
Eсли вы уже удалили старые серии, то предотвратить повторную закачку старых серий можно, отжав галочку в соответствующих местах при запуске нового торрента. По возможности, желательно не удалять старые серии как можно дольше чтобы релизёр не столько продолжал раздавать старые серии, а смог сконцентрироваться на новых.
Яндекс.Метрика
Рейтинг@Mail.ru