[ Сегодня на трекере фрилич! Идет свободное скачивание без начисления Download ]

Сезон охоты / Fair Chase / Hunting Season (Эдуардо Кастрильё / Eduardo Castrillo) [2016 г., триллер, WEB-DLRip] MVO

 

Создавать темы 08-Июл-2016 03:56

-Сезон охоты / Fair Chase / Hunting Season-- Производство: США, History In The Making Entertainment, Uncia Films
Год выпуска: 2016 г.
Жанр: триллер
Продолжительность: 01:24:09Мировая премьера: 7 июня 2016
Перевод: Любительский (многоголосый, закадровый)
Режиссер: Эдуардо Кастрильё / Eduardo Castrillo-В ролях: Том Сайзмор, Эрик Робертс, Клифтон Пауэлл, Мигель А. Нуньес мл., Маркус Д. Спенсер, Джеки Даллас, Майкл Пласенсия, Michael Grayson, Matt Fuentes, Joey Ruggiero, ...-Описание: Два агента ФБР взялись за дело пропавшего человека, который приводит их к группе фондовых брокеров, которые охотятся на людей, занимающихся спортом.-
Качество видео: WEB-DLRip
Контейнер: AVI
Видео кодек: XviD
Аудио кодек: AC3
Видео: 720x400 (1.80:1), 23.976 fps, XviD build 50 ~1916 kbps avg, 0.28 bit/pixel
Аудио: 48 kHz, AC3 Dolby Digital, 2/0 (L,R) ch, ~384 kbps
Cубтитры: отсутствуют

Media Info

Общее
Полное имя : J:\Сезон охоты\Sezon ohoty.2016.P.WEB-DLRip.[pirat.ca].avi
Формат : AVI
Формат/Информация : Audio Video Interleave
Размер файла : 1,37 Гбайт
Продолжительность : 1 ч. 24 м.
Общий поток : 2310 Кбит/сек
Название фильма : Sezon ohoty.2016.P.WEB-DLRip.[pirat.ca]
Программа кодирования : VirtualDubMod 1.5.10.2 (build 2540/release)Видео
Идентификатор : 0
Формат : MPEG-4 Visual
Профиль формата : Advanced [email protected]/* */
Параметр BVOP формата : 2
Параметр QPel формата : Нет
Параметр GMC формата : Без точки перехода
Параметр матрицы формата : Default (MPEG)
Идентификатор кодека : XVID
Идентификатор кодека/Подсказка : XviD
Продолжительность : 1 ч. 24 м.
Битрейт : 1917 Кбит/сек
Ширина : 720 пикселей
Высота : 400 пикселей
Соотношение сторон : 16:9
Частота кадров : 23,976 (24000/1001) кадра/сек
Цветовое пространство : YUV
Субдискретизация насыщенности : 4:2:0
Битовая глубина : 8 бит
Тип развёртки : Прогрессивная
Метод сжатия : С потерями
Бит/(Пиксели*Кадры) : 0.278
Размер потока : 1,13 Гбайт (83%)
Библиотека кодирования : XviD 1.2.1 (UTC 2008-12-04)Аудио
Идентификатор : 1
Формат : AC-3
Формат/Информация : Audio Coding 3
Расширение режима : CM (complete main)
Параметр Endianness формата : Big
Идентификатор кодека : 2000
Продолжительность : 1 ч. 24 м.
Вид битрейта : Постоянный
Битрейт : 384 Кбит/сек
Каналы : 2 канала
Расположение каналов : Front: L R
Частота : 48,0 КГц
Частота кадров : 31,250 кадров/сек (1536 spf)
Метод сжатия : С потерями
Размер потока : 233 Мбайт (17%)
Выравнивание : Разделение по промежуткам
Продолжительность промежутка : 42 мс. (1,00 видеокадр)
Время предзагрузки промежутка : 500 мс.

Скриншот c названием фильма

Скриншоты

-Трейлер
Яндекс.Метрика
Рейтинг@Mail.ru