Рюдзо и семеро бойцов / Ryûzô to 7 nin no kobun tachi (Такеши Китано / Takeshi Kitano) [2015 г., боевик, комедия, BDRip-AVC, 720p] MVO [ iTunes] + Sub (Rus)

 

Создавать темы 08-Июл-2016 03:51

-Рюдзо и семеро бойцов / Ryûzô to 7 nin no kobun tachi-- Производство: Япония, Office Kitano
Год выпуска: 2015 г.
Жанр: боевик, комедия
Продолжительность: 01:51:15Мировая премьера: 25 апреля 2015
Российская премьера: 19 ноября 2015, «Артхаус»
Перевод: Профессиональный (многоголосый, закадровый) [ iTunes]
Режиссер: Такеши Китано / Takeshi Kitano-В ролях: Тацуя Фудзи, Бэн Хиура, Кодзюн Ито, Масанобу Кацумура, Такеши Китано, Масаоми Кондо, Хисако Манда, Акира Накао-Описание: Бывший боец якудза, давно ведущий размеренную жизнь пенсионера, становится жертвой мошенничества и решает основать новый клан якудза вместе со своими престарелыми друзьями, чтобы вернуть славные времена и, разумеется, воздать по заслугам обидчикам…-
Качество видео: BDRip-AVC
Контейнер: MKV
Стандарт разрешения: 720p
Видео кодек: MPEG4 AVC
Аудио кодек: AC3
Видео: 1280x536, 5000 Kbps, 23.976fp
Аудио: Русский (АС3, 6 ch, 384 Кбит/с) iTunes
Cубтитры: русские
Формат субтитров: softsub (SRT)
Доп. информация о субтитрах: включаемые

Рецензия

Такеши Китано… Как много хорошего вмещают эти два слова для практически любого истового киномана! Гордое имя, давно уже превратившееся в бренд. Режиссёр и актёр. Один из последних истинных самураев японского кино. Скажу сразу, я не очень понимаю «странные» фильмы Такеши, снятые мастером где-то на стыке инфернальной нити бытия, палочек для риса и сурового и загадочного восточного артхауса. Скажем, тот же его «Такешиз» (очередной том полного собрания киносочинений маэстро) Но Такеши всегда открыт и для «простого», массового любителя кино. И открыт он своими фильмами (и, естественно, своими ролями в них) про якудза и полицейских. Много у него было снято шедевров — «Жестокий полицейский», «Брат якудза», «Гроздья пуль подобны фейерверку»… И вот новое творение мастера — х/ф «Рюдзо и семеро бойцов». О чём рассказывает этот за без малым преувеличением просто замечательный фильм? Он рассказывает нам о группе японских пенсионеров. Только вот фокус тот что эти забавные старички — якудза (традиционная японская ОПГ, напоминающая как триады, так и мафию, каморру и т. п. ндрагетты). Причём якудза старой закалки — все в татуировках, с ножами и бритвами, готовые если что — сразу в бой. И невольным заводилой у них оказывается поначалу довольно спокойный (гхм) Рюдзо. Надо сразу сказать, что Китано просто любуется этим героем (а играет его Тацуя Фудзи). Рюндзо — неплохой старик. А ещё он самый настоящий бандит и отморозок. Но и у него есть свои принципы, например — последнего у бедняков не брать, а за кровь брать в ответ только кровь и никак иначе. И здесь режиссёр поднимает две крайне интересных проблемы, свои ответы на которые давали уже и французский, и советский, и американский синематограф. Это, условно говоря, cтарики-разбойники. (да, не Сталлоне первым тряхнул старыми мускулами, но всё равно хвала ему и честь!)А ещё это проблема смены поколений в преступном мире. Когда уходят леопарды и их место занимают шакалы.Но вернёмся ж к картине. Фильм смотрится вполне легко, единственно, надо с самого начала перейти с ним на общую волну, поймать ритм. Потому что это всё-таки японское кино. А ещё это и комедия, и боевик одновременно. Но ни в коем случае не комедийный боевик! Потому что убивают тут вполне серьёзно. Но и смеяться тоже вполне умеют. Ах да, пошлости здесь нет ни на гран, но будет пара сцен с довольно жёстким юмором…Резюме:Ценителям творчества Такеши Китано и японского кинематографа — смотреть однозначно! Любителям криминальных комедий и драм — тоже.Умеренно острое, очень атмосферное, доброе, чуточку наивное и местами жестокое кино. Смотрите и наслаждайтесь!Якудза — они такие. На пенсию не уходят.

Media Info

Общее
Уникальный идентификатор : 199868266198390733897238475291040740259 (0x965D3A565F187176A355E0ECADB4F3A3)
Полное имя : F:\Рюдзо и семеро бойцов\Rydjzo.2015.BDRip.720p.[pirat.ca].mkv
Формат : Matroska
Версия формата : Version 2
Размер файла : 4,18 Гбайт
Продолжительность : 1 ч. 51 м.
Общий поток : 5377 Кбит/сек
Дата кодирования : UTC 2016-07-07 14:15:22
Программа кодирования : mkvmerge v5.3.0 ('I could have danced') built on Feb 9 2012 10:38:07
Библиотека кодирования : libebml v1.2.3 + libmatroska v1.3.0Видео
Идентификатор : 1
Формат : AVC
Формат/Информация : Advanced Video Codec
Профиль формата : [email protected]/* */
Параметр CABAC формата : Да
Параметр ReFrames формата : 12 кадров
Идентификатор кодека : V_MPEG4/ISO/AVC
Продолжительность : 1 ч. 51 м.
Битрейт : 5000 Кбит/сек
Ширина : 1280 пикселей
Высота : 536 пикселей
Соотношение сторон : 2,40:1
Режим частоты кадров : Постоянный
Частота кадров : 23,976 (24000/1001) кадра/сек
Цветовое пространство : YUV
Субдискретизация насыщенности : 4:2:0
Битовая глубина : 8 бит
Тип развёртки : Прогрессивная
Бит/(Пиксели*Кадры) : 0.304
Размер потока : 3,80 Гбайт (91%)
Библиотека кодирования : x264 core 129 r2245+704+36 8e61944 tMod+MixAQ [[email protected]/* */:2:0 X86_64]
Настройки программы : cabac=1 / ref=12 / deblock=1:-3:-3 / analyse=0x3:0x133 / me=umh / subme=11 / psy=1 / fade_compensate=0.00 / psy_rd=1.05:0.10 / mixed_ref=1 / me_range=32 / chroma_me=1 / trellis=2 / 8x8dct=1 / cqm=0 / deadzone=21,11 / fast_pskip=0 / chroma_qp_offset=-3 / threads=18 / lookahead_threads=3 / sliced_threads=0 / nr=0 / decimate=0 / interlaced=0 / bluray_compat=0 / constrained_intra=0 / fgo=0 / bframes=10 / b_pyramid=2 / b_adapt=2 / b_bias=0 / direct=3 / weightb=1 / open_gop=0 / weightp=2 / keyint=250 / keyint_min=23 / scenecut=40 / intra_refresh=0 / rc_lookahead=80 / rc=2pass / mbtree=1 / bitrate=5000 / ratetol=1.0 / qcomp=0.70 / qpmin=0 / qpmax=69 / qpstep=4 / cplxblur=20.0 / qblur=0.5 / ip_ratio=1.40 / aq=1 / aq-strength=0.85 / aq-sensitivity=10.00 / aq-ifactor=1.00 / aq-pfactor=1.00 / aq-bfactor=1.00 / aq2=0
Язык : Japanese
Default : Нет
Forced : НетАудио
Идентификатор : 2
Формат : AC-3
Формат/Информация : Audio Coding 3
Расширение режима : CM (complete main)
Параметр Endianness формата : Big
Идентификатор кодека : A_AC3
Продолжительность : 1 ч. 51 м.
Вид битрейта : Постоянный
Битрейт : 384 Кбит/сек
Каналы : 6 каналов
Расположение каналов : Front: L C R, Side: L R, LFE
Частота : 48,0 КГц
Частота кадров : 31,250 кадров/сек (1536 spf)
Метод сжатия : С потерями
Размер потока : 306 Мбайт (7%)
Заголовок : MVO
Язык : Russian
Default : Да
Forced : ДаТекст
Идентификатор : 3
Формат : UTF-8
Идентификатор кодека : S_TEXT/UTF8
Идентификатор кодека/Информация : UTF-8 Plain Text
Заголовок : Full
Язык : Russian
Default : Нет
Forced : НетМеню
00:00:00.000 : en:00:00:00.000
00:11:39.281 : en:00:11:39.281
00:19:25.998 : en:00:19:25.998
00:29:03.950 : en:00:29:03.950
00:39:48.010 : en:00:39:48.010
00:54:03.865 : en:00:54:03.865
01:00:40.845 : en:01:00:40.845
01:11:33.163 : en:01:11:33.163
01:23:13.363 : en:01:23:13.363
01:29:16.476 : en:01:29:16.476
01:40:01.495 : en:01:40:01.495

Скриншот c названием фильма

Скриншоты

-Трейлер
Яндекс.Метрика
Рейтинг@Mail.ru