Биби – маленькая волшебница / Bibi Blocksberg (Гермина Хунтгебурт / Hermine Huntgeburth) [2002 г., фэнтези, комедия, семейный, DVDRip] MVO

 

Создавать темы 08-Июл-2016 03:47

-Биби – маленькая волшебница / Bibi Blocksberg-- Производство: Германия, Bavaria Film, ...
Год выпуска: 2002 г.
Жанр: фэнтези, комедия, семейный
Продолжительность: 01:42:01Мировая премьера: 26 сентября 2002
Российская премьера: 1 мая 2003, «Интерсинема-Арт»
Дата выхода DVD: 18 сентября 2008, «Мистерия Звука»
Перевод: Профессиональный (многоголосый, закадровый)
Режиссер: Гермина Хунтгебурт / Hermine Huntgeburth-В ролях: Моника {мат}, Катя Риманн, Сидони фон Кросигк, Аня Соммавилла, Кристиан Никел, Ульрих Нойтен, Коринна Харфух, Инга Буш, Жанетт Хайн-Описание: В маленьком городке Нойштадт праздник. Начинающая волшебница Биби спасла двух маленьких детей из огня, «наколдовав дождь» и потушив пожар. Ее мама Барбара, потомственная колдунья, гордится своей дочерью. А главная волшебница Вальпургия решает раньше, чем положено по традиции, вручить Биби самую ценную награду мира колдовства и магии — «Хрустальный Шар».Теперь с помощью этого шара она сможет путешествовать в прошлое и будущее, но самое главное — станет настоящей волшебницей. Но злая ведьма Рабиа, умирающая от зависти к Биби, клянется, что «не будет знать ни сна, ни отдыха», пока не отнимет у юной волшебницы ее сокровище…-
Качество видео: DVDRip
Контейнер: AVI
Видео кодек: XviD
Аудио кодек: AC3
Видео: 720x400 (1.80:1), 25 fps, XviD build 50 ~1699 kbps avg, 0.24 bit/pixel
Аудио: 48 kHz, AC3 Dolby Digital, 3/2 (L,C,R,l,r) + LFE ch, ~448 kbps
Cубтитры: отсутствуют

Рецензия

Биби Блогсберг — Гарри Поттер в юбке?На украинском телевидении реклама фильма «Биби — маленькая волшебница» прошла под слоганом: «Германия дает ответ „Гарри Поттеру“». Но на мой взгляд, их трудно даже сравнивать.Начнем с того, что Биби все-таки девочка. В Германии (вспомним хотя бы Вальпургиеву ночь) в магическом искусстве всегда доминировали девочки — и тут немцы остались верны себе.Возможно, сюжет напоминает стандартную детскую сказку о борьбе Добра со Злом, но интерпретация интересная, оригинальная, выдержанная в немецких традициях. Замок Рабии Катценштайн действительно впечатляет. В 2004 году, когда мне было 10 лет, я посмотрела этот фильм впервые (с книгами и первыми фильмами о Гарри Поттере я уже была знакома). Мне и в голову не пришло бы проводить параллели, если бы не реклама. Фильм абсолютно самобытный. Эрмина Хунтгебурх молодец!И сейчас, спустя шесть лет после первого просмотра ставлю10 из 10

Media Info

Общее
Полное имя : F:\Биби - маленькая волшебница\Bibi-malenkaya volshebnica.2002.DVDRip.[pirat.ca].avi
Формат : AVI
Формат/Информация : Audio Video Interleave
Размер файла : 1,54 Гбайт
Продолжительность : 1 ч. 42 м.
Общий поток : 2158 Кбит/сек
Программа кодирования : VirtualDubMod 1.5.10.3 | www.virtualdub-fr.org || (build 2550/release)
Библиотека кодирования : VirtualDubMod build 2550/releaseВидео
Идентификатор : 0
Формат : MPEG-4 Visual
Профиль формата : Advanced [email protected]/* */
Параметр BVOP формата : 2
Параметр QPel формата : Нет
Параметр GMC формата : Без точки перехода
Параметр матрицы формата : Default (MPEG)
Идентификатор кодека : XVID
Идентификатор кодека/Подсказка : XviD
Продолжительность : 1 ч. 42 м.
Битрейт : 1700 Кбит/сек
Ширина : 720 пикселей
Высота : 400 пикселей
Соотношение сторон : 16:9
Частота кадров : 25,000 кадров/сек
Цветовое пространство : YUV
Субдискретизация насыщенности : 4:2:0
Битовая глубина : 8 бит
Тип развёртки : Прогрессивная
Метод сжатия : С потерями
Бит/(Пиксели*Кадры) : 0.236
Размер потока : 1,21 Гбайт (79%)
Библиотека кодирования : XviD 1.2.1 (UTC 2008-12-04)Аудио
Идентификатор : 1
Формат : AC-3
Формат/Информация : Audio Coding 3
Расширение режима : CM (complete main)
Параметр Endianness формата : Big
Идентификатор кодека : 2000
Продолжительность : 1 ч. 42 м.
Вид битрейта : Постоянный
Битрейт : 448 Кбит/сек
Каналы : 6 каналов
Расположение каналов : Front: L C R, Side: L R, LFE
Частота : 48,0 КГц
Частота кадров : 31,250 кадров/сек (1536 spf)
Метод сжатия : С потерями
Размер потока : 327 Мбайт (21%)
Выравнивание : Разделение по промежуткам
Продолжительность промежутка : 40 мс. (1,00 видеокадр)
Время предзагрузки промежутка : 500 мс.

Скриншот c названием фильма

Скриншоты

-Трейлер
Яндекс.Метрика
Рейтинг@Mail.ru