Прокол / Blow Out (Брайан Де Пальма / Brian De Palma) [1981 г., триллер, драма, детектив, BDRip-AVC, 720p] DVO [НТВ] + DVO [Екатеринбург Арт] + Sub (Rus)

 

Создавать темы 08-Июл-2016 03:41

-Прокол / Blow Out-- Производство: США, Cinema 77, Filmways Pictures, Geria Productions, Viscount Associates
Год выпуска: 1981 г.
Жанр: триллер, драма, детектив
Продолжительность: 01:47:50Мировая премьера: 24 июля 1981
Перевод: Профессиональный (двухголосый, закадровый) [НТВ]
Перевод 2: Профессиональный (двухголосый, закадровый) [Екатеринбург Арт]
Режиссер: Брайан Де Пальма / Brian De Palma-В ролях: Джон Траволта, Нэнси Аллен, Джон Литгоу, Деннис Франц, Питер Бойден, Курт Мэй, Джон Акино, Джон МакМартин, Дебора Эвертон, Дж. Патрик МакНамара-Описание: Когда звукорежиссер Джек записывал звуковые эффекты для нового фильма, он стал свидетелем падения в реку потерявшего управление автомобиля и спас из затонувшей машины девушку по имени Салли. Ехавший с ней мужчина погиб.Джек тщетно пытается убедить полицию, что одновременно со звуком лопнувшей покрышки слышал звук выстрела. Помощник погибшего, оказавшегося известным политическим деятелем, советует Джеку поскорее забыть эту историю. Выйдя из больницы, Джек решает прослушать сделанную им в тот день запись.Сомнений быть не может — он отчетливо слышит звук выстрела. Более того, есть еще один свидетель автокатастрофы — фотограф Мэнни, заснявший всю последовательность событий. Джек тайком наведывается в студию Мэнни и находит там фотографии Салли, снятой вместе с известными людьми в весьма недвусмысленных позах…-
Качество видео: BDRip-AVC
Контейнер: MKV
Стандарт разрешения: 720p
Видео кодек: MPEG4 AVC
Аудио кодек: AC3
Видео: 1280x534 at 23.976 fps, [email protected]/* */, ~4784 kbps avg
Аудио: Russian: 48 kHz, AC3, 2/0 (L,R) ch, ~192 kbps avg |Двухголосый закадровый, НТВ|
Аудио #2: Russian: 48 kHz, AC3, 2/0 (L,R) ch, ~192 kbps avg |Двухголосый закадровый, Екатеринбург Арт|
Cубтитры: русские
Формат субтитров: softsub (SRT)
Доп. информация о субтитрах: включаемые

Доп. информация

Во французской версии фильма Джона Траволту дублировал Жерар Депардье.
В течение съемок фильма Джон Траволта страдал от хронической бессонницы.
Первоначально на роль Джека Терри режиссер Брайан Де Пальма выбрал Аль Пачино.
Во время монтажного периода две катушки пленки со съемочным материалом эпизода Парада Свободы были украдены. Их так и не смогли найти. Потребовалось еще $750,000, чтобы переснять эти сцены. Оператор Вилмош Жигмонд в это время уже был занят другим проектом, и его заменил Ласло Ковач.
Автокатастрофа намекает на скандал, известный как Чаппаквиддикский инцидент, фактически похоронивший политическую карьеру сенатора Теда Кеннеди, брата покойного президента Джона Ф. Кеннеди и сенатора Роберта Кеннеди (среднего из трех братьев Кеннеди). 19 июля 1969 года, возвращаясь с праздника, устроенного одним из его друзей на острове Чаппаквиддик на Атлантическом побережье США, Тед Кеннеди не справился с управлением, и машина, в которой он ехал, упала с моста в воду. В машине с ним была секретарша Роберта Кеннеди Мэри Джо Копечне, с которой он прибыл на праздник, хотя дома у него оставались жена и дети. Сенатор сумел выбраться из машины и скрылся с места происшествия, не позвонив в полицию, а в дальнейшем попытался обеспечить себе алиби. Его спутница утонула. Благодаря связям своей семьи Тед Кеннеди избежал ответственности, но был вынужден навсегда отказаться от мечты стать президентом.
Часть музыки из «Прокола» была позаимствована для фильма «Планета страха» (2007).

Рецензия

Не в том месте, не в то времяДжек Терри работает звукорежиссером и записывает звуковые эффекты для фильмов. Однажды, прогуливаясь в ночном парке со своей записывающей аппаратурой, Джек случайно записывает на микрофон автомобильную аварию — машина с проколотым колесом не справляется с управлением и слетает с моста в водоем. За рулем был не кто-то, а видный политический деятель, который должен был победить на парламентских выборах, и девушка Салли, сидевшая рядом. Джеку удается спасти лишь эту девушку, вместе с которой они оказываются в больнице. Полиция допрашивает обоих о событиях той ночи, а помощник погибшего убеждает Джека и Салли сделать вид, что ничего не было. Однако, запись, сделанная на пленку, не дает покоя Терри, и он отчетливо слышит выстрел во время повторной прокрутки. Становится ясно, что авария была подстроена, а пытливый Джек непременно захочет докопаться до правды, впутав в это дело и Салли, далеко не случайно оказавшуюся в той роковой машине с политиком.Брайан Де Пальма решил немного изменить излюбленной хичкоковской теме (хотя и здесь она отчетливо прослеживается) и переключиться на триллеры с политической подоплекой. «Прокол» уже в своем оригинальном названии «Blow out» намекает на классический кинохит Микеланджело Антониони «Blow Up» («Фотоувеличение», 1966), и, соответственно, оммажирует уже Антониони, сделав виновником одержимости главного героя уже не фототехнику, а аудиоаппаратуру. К слову об аудиоаппаратуре, очень много сходств можно заметить и с лентой «Разговор» (1974) Фрэнсиса Форда Копполы, даже больше, чем с фильмом Антониони, который не имел никакого отношения к заговорам. Де Пальма, который является и автором сценария, и здесь, на мой взгляд, не ударил в грязь лицом, подав зрителю изысканный микс вышеупомянутых фильмов, приправив его своим уже отточенным стилем а-ля Хичкок с нотками черного юмора, вследствие чего получился яркий и незабываемый кинококтейль. Изобретательные ракурсы камеры от мастеровитого оскароносного оператора Вилмоша Жигмонда и музыкальное сопровождение Пино Донаджо, уже не впервой работавшим с режиссером, играют очень важную роль в нагнетании мощного саспенса, намертво примагничивающего зрителя к экрану от вступительных и до финальных титров. Также невозможно не отметить те стильные монтажные приемы, примененные в ленте (особенно в сцене внимательной прослушки пленки героем Траволты). Актеры Джон Траволта (Джек Терри), уже сыгравший в «Кэрри» и Нэнси Аллен (Салли), на тот момент жена режиссера, уже снявшаяся у него в двух фильмах, достойно выступили в качестве экранного дуэта, а Джон Литгоу, также уже проявивший себя у Де Пальмы в «Наваждении», воплотил на экране образ самого настоящего хладнокровного злодея с пугающим взглядом, при виде которого становится и правда не по себе. Только, к сожалению, в свое время этот фильм потерпел провал в прокате и не был встречен критиками с распростертыми объятиями. Классический триллер, являющийся помимо того, что изящным и изобретательным поклоном вышеупомянутым классикам кино, так и вовсе всеобъемлющей кинематографической поговоркой «искусство требует жертв», говорящейся языком кино с экрана в финальных кадрах.9 из 10

Media Info

Общее
Уникальный идентификатор : 212212369683748075759519055441670511253 (0x9FA69DA0C3DC4B0B99569AC9B9DD1A95)
Полное имя : F:\Прокол\Prokol.1981.BDRip.720p.[pirat.ca].mkv
Формат : Matroska
Версия формата : Version 2
Размер файла : 3,98 Гбайт
Продолжительность : 1 ч. 47 м.
Общий поток : 5287 Кбит/сек
Дата кодирования : UTC 2016-07-07 17:17:33
Программа кодирования : mkvmerge v5.3.0 ('I could have danced') built on Feb 9 2012 10:38:07
Библиотека кодирования : libebml v1.2.3 + libmatroska v1.3.0Видео
Идентификатор : 1
Формат : AVC
Формат/Информация : Advanced Video Codec
Профиль формата : [email protected]/* */
Параметр CABAC формата : Да
Параметр ReFrames формата : 9 кадров
Идентификатор кодека : V_MPEG4/ISO/AVC
Продолжительность : 1 ч. 47 м.
Битрейт : 4798 Кбит/сек
Ширина : 1280 пикселей
Высота : 534 пикселя
Соотношение сторон : 2,40:1
Режим частоты кадров : Постоянный
Частота кадров : 23,976 (24000/1001) кадра/сек
Цветовое пространство : YUV
Субдискретизация насыщенности : 4:2:0
Битовая глубина : 8 бит
Тип развёртки : Прогрессивная
Бит/(Пиксели*Кадры) : 0.293
Размер потока : 3,61 Гбайт (91%)
Библиотека кодирования : x264 core 146 r2538 121396c
Настройки программы : cabac=1 / ref=9 / deblock=1:-3:-3 / analyse=0x3:0x113 / me=umh / subme=10 / psy=1 / psy_rd=1.00:0.15 / mixed_ref=1 / me_range=32 / chroma_me=1 / trellis=2 / 8x8dct=1 / cqm=0 / deadzone=21,11 / fast_pskip=1 / chroma_qp_offset=-3 / threads=6 / lookahead_threads=1 / sliced_threads=0 / nr=0 / decimate=1 / interlaced=0 / bluray_compat=0 / constrained_intra=0 / bframes=9 / b_pyramid=2 / b_adapt=2 / b_bias=0 / direct=1 / weightb=1 / open_gop=0 / weightp=2 / keyint=230 / keyint_min=23 / scenecut=40 / intra_refresh=0 / rc_lookahead=40 / rc=crf / mbtree=0 / crf=20.7 / qcomp=0.60 / qpmin=0 / qpmax=69 / qpstep=4 / vbv_maxrate=40000 / vbv_bufsize=50000 / crf_max=0.0 / nal_hrd=none / filler=0 / ip_ratio=1.40 / pb_ratio=1.30 / aq=1:1.00
Язык : English
Default : Да
Forced : Нет
Statistics Tags Issue : mkvmerge v8.2.0 ('World of Adventure') 64bit 2016-07-06 09:53:44 / mkvmerge v5.3.0 ('I could have danced') built on Feb 9 2012 10:38:07 2016-07-07 17:17:33
FromStats_BitRate : 4900772
FromStats_Duration : 01:47:49.922000000
FromStats_FrameCount : 155123
FromStats_StreamSize : 3963451883Аудио #1
Идентификатор : 2
Формат : AC-3
Формат/Информация : Audio Coding 3
Расширение режима : CM (complete main)
Параметр Endianness формата : Big
Идентификатор кодека : A_AC3
Продолжительность : 1 ч. 47 м.
Вид битрейта : Постоянный
Битрейт : 192 Кбит/сек
Каналы : 2 канала
Расположение каналов : Front: L R
Частота : 48,0 КГц
Частота кадров : 31,250 кадров/сек (1536 spf)
Метод сжатия : С потерями
Размер потока : 148 Мбайт (4%)
Заголовок : DVO (HTB)
Язык : Russian
Default : Да
Forced : Нет
Statistics Tags Issue : mkvmerge v8.2.0 ('World of Adventure') 64bit 2016-07-06 09:53:44 / mkvmerge v5.3.0 ('I could have danced') built on Feb 9 2012 10:38:07 2016-07-07 17:17:33
FromStats_BitRate : 192000
FromStats_Duration : 01:47:49.984000000
FromStats_FrameCount : 202187
FromStats_StreamSize : 155279616Аудио #2
Идентификатор : 3
Формат : AC-3
Формат/Информация : Audio Coding 3
Расширение режима : CM (complete main)
Параметр Endianness формата : Big
Идентификатор кодека : A_AC3
Продолжительность : 1 ч. 47 м.
Вид битрейта : Постоянный
Битрейт : 192 Кбит/сек
Каналы : 2 канала
Расположение каналов : Front: L R
Частота : 48,0 КГц
Частота кадров : 31,250 кадров/сек (1536 spf)
Метод сжатия : С потерями
Размер потока : 148 Мбайт (4%)
Заголовок : DVO (Екатеринбург Арт)
Язык : Russian
Default : Нет
Forced : Нет
Statistics Tags Issue : mkvmerge v8.2.0 ('World of Adventure') 64bit 2016-07-06 09:53:44 / mkvmerge v5.3.0 ('I could have danced') built on Feb 9 2012 10:38:07 2016-07-07 17:17:33
FromStats_BitRate : 192000
FromStats_Duration : 01:47:49.984000000
FromStats_FrameCount : 202187
FromStats_StreamSize : 155279616Текст
Идентификатор : 4
Формат : UTF-8
Идентификатор кодека : S_TEXT/UTF8
Идентификатор кодека/Информация : UTF-8 Plain Text
Заголовок : русские
Язык : Russian
Default : Нет
Forced : Нет
Statistics Tags Issue : mkvmerge v8.2.0 ('World of Adventure') 64bit 2016-07-06 09:53:44 / mkvmerge v5.3.0 ('I could have danced') built on Feb 9 2012 10:38:07 2016-07-07 17:17:33
FromStats_BitRate : 107
FromStats_Duration : 01:43:20.574000000
FromStats_FrameCount : 1137
FromStats_StreamSize : 83305

Скриншот c названием фильма

Скриншоты

-Трейлер
Яндекс.Метрика
Рейтинг@Mail.ru