Андроид / App / Android (Бобо Боерманс) [2013, триллер, BDRip] [Dub] [Лицензия] [745 MB]

 

Создавать темы 01-Янв-2014 18:08

Информация о фильме
Название: Андроид
Оригинальное название: App / Android
Год выхода: 2013
Жанр: триллер
Режиссер: Бобо Боерманс / Bobby Boermans
В ролях: Ханна Хекстра, Роберт де Хуг, Исис Каболе, Маттис ван де Санде Бакхуйзен, Марк ван Эувен, Лиза Сипс, Ерун Шпиценбергер, Алекс Хендрикс, Патрик Мартенс, Гиги Равелли
О фильме: Симпатичная студентка Анна просыпается после вечеринки и обнаруживает на своем смартфоне загадочное приложение «Айрис» Активируя приложение, Анна запускает головокружительную и трагическую череду событий в жизни своих друзей и знакомых. Кто за этим стоит?
Страна: Нидерланды
Продолжительность: 01:18:43
Перевод: Дублированный [Лицензия]
Файл
Кодек: XviD
Качество: BDRip (Исх. BDRemux)
Видео: 688x288 (2.39:1), 24.000 fps, XviD build 73 ~1189 kbps avg, 0.25 bit/pixel
Звук: 48 kHz, MPEG Layer 3, 2 ch, ~128.00 kbps avg
Субтитры: нет
Semple.avi
http://www.youtube.com/watch?v=NToYzDE2_pU

Pumba

Мобила убивает
Вот и настал тот день, когда перед сеансом нам говорят «Пожалуйста, ВКЛЮЧИТЕ свои мобильные телефоны». Дамы и господа, технология «второго экрана» вслед за играми добралась и до кино. Однако рано кричать «Ура!» и готовиться к новой эре в киноиндустрии, потому что первый блин вышел комом.
«Андроид» никоим образом не связан с компанией Google и одноимённой операционной системой их производства (хотя могли бы и профинансировать, что уж там). В данном случае имеет место попытка развязать некоторый «срач платформ» со стороны прокатчика, но, как ни странно, предпосылки к этому заложены в сценарии. Девушка Анна где-то подхватывает приложение Iris, которое очень трудно спутать с персональным помощником для iOS Siri. Сначала «Айрис» приносит пользу, например, помогает на экзаменах и будит героиню в нужный момент, но уже скоро искусственный интеллект становится таинственным образом причастен к череде убийств…
Смысла останавливаться на дальнейшем развитии сюжета особо нет, это «Пункт назначения» пополам с «Чёртовым мобильником», который по иронии судьбы тоже голландского производства. Диалоги глупы, сюжетные твисты видны за версту, хотя порой мотивация и характер действий героев не поддаётся никакой логике. Стандартный низкобюджетный триллер, ничего сверхъестественного.
Об актерах тоже мало чего можно и хочется говорить. Исполнительница главной роли актриса Ханна Хекстра миловидна и во многом напоминает Эмму Уотсон голландского разлива. У неё есть мотоцикл, на котором она так знакомо колесит по улицам неназываемого города в своей кожанке. Словно Лисбет с татуировкой дракона, она герой-одиночка, ничего не боится и не стесняется. Кроме своего мобильника с неудаляемым приложением.
Зритель перед просмотром скачивает точно такое же приложение «Айрис» на свой телефон на базе iOS или Android. Принцип работы приложения похож на Shazam и прочее ПО, которое умеет определять музыку — по фону Айрис определяет место нахождения в фильме и начинает работу. Каждое сообщение от неё сопровождается вибро-сигналом и на экране появляется информация. Это может быть что угодно, например, съёмка какого-то момента с другой камеры, или показ переписки героев в соцсетях, или просто новостная заметка о случившихся событиях. В ряде моментов процесс поражает и захватывает, всем присутствующим на экране приходит видеоролик, этот же ролик приходит тебе на телефон, в общем, эффект присутствия и участия максимальный. Но нету того, чего ждёшь больше всего — триллера, нагнетающих атмосферу моментов и просто таких ситуаций, когда ты 10 раз подумаешь, а стоит ли вообще опускать глаза с большого экрана на маленький. Слабый триллер «Андроида» фактически становится ещё менее страшным от приложения, на которое приходится отвлекаться в среднем каждые 5 минут.
Ожиданий было не много, прямо скажем, но и они не оправдались. Посредственный фильм хоть и скрашивается инновацией «второго экрана», но и от неё ждёшь куда большего. Логичней всего сказать «А чего вы ещё хотели с таким бюджетом?», но в эпоху краудфандинга и когда люди на коленке пилят маленькие шедевры эта отговорка не работает. Хочется верить, что нам когда-нибудь ещё доведётся скачать приложение для просмотра фильма и после неудачного опыта индустрия не забросит весьма перспективное начинание.
6 из 10 (1 балл на развитие интерактива в кино)
P.S. У Android-версии приложения у центрального «глаза» Iris отсутствует анимация. Плюс приложение один раз за просмотр сломалось. В остальном же работало чётко и без ошибок.

MediaInfo

Общее
Полное имя : C:UsersDeadmauvladDesktopРелизы На выкладкуAndroid.2013.BDRip.Rus.Deadmauvlad.avi
Формат : AVI
Формат/Информация : Audio Video Interleave
Размер файла : 747 Мбайт
Продолжительность : 1 ч. 18 м.
Общий поток : 1327 Кбит/сек
Программа кодирования : VirtualDubMod 1.5.10.3 | www.virtualdub-fr.org || (build 2550/release)
Библиотека кодирования : VirtualDubMod build 2550/release
Видео
Идентификатор : 0
Формат : MPEG-4 Visual
Профиль формата : Advanced [email protected]
Параметр BVOP формата : 1
Параметр QPel формата : Нет
Параметр GMC формата : Без точки перехода
Параметр матрицы формата : Default (MPEG)
Идентификатор кодека : XVID
Идентификатор кодека/Подсказка : XviD
Продолжительность : 1 ч. 18 м.
Битрейт : 1190 Кбит/сек
Ширина : 688 пикселей
Высота : 288 пикселей
Соотношение сторон : 2,40:1
Частота кадров : 24,000 кадра/сек
Цветовое пространство : YUV
Субдискретизация насыщенности : 4:2:0
Битовая глубина : 8 бит
Тип развёртки : Прогрессивная
Метод сжатия : С потерями
Бит/(Пиксели*Кадры) : 0.250
Размер потока : 670 Мбайт (90%)
Библиотека кодирования : XviD 73
Аудио
Идентификатор : 1
Формат : MPEG Audio
Версия формата : Version 1
Профиль формата : Layer 3
Идентификатор кодека : 55
Идентификатор кодека/Подсказка : MP3
Продолжительность : 1 ч. 18 м.
Вид битрейта : Постоянный
Битрейт : 128 Кбит/сек
Каналы : 2 канала
Частота : 48,0 КГц
Метод сжатия : С потерями
Размер потока : 72,1 Мбайт (10%)
Выравнивание : Соединение по промежуткам
Продолжительность промежутка : 42 мс. (1,00 видеокадр)
Время предзагрузки промежутка : 504 мс.
Библиотека кодирования : LAME3.99r
Настройки программы : -m s -V 4 -q 2 -lowpass 17 -b 128

Скриншоты

Яндекс.Метрика
Рейтинг@Mail.ru