Хардкор / Hardcore Henry (2015) WEB-DLRip [576p] iPad [Line]

 

Создавать темы 07-Июл-2016 12:51

-Хардкор (2015) WEB-DLRip [576p] iPad [Line]
«First they made him dangerous. Then they made him mad»
- Год выпуска: 2015
Производство: США
Жанр: Боевик, фантастика
Продолжительность: 01:36:45
Перевод: Дублированный (LINE)
Субтитры: Английские (полные, отключаемые)
Режиссер: Илья Найшуллер
Актеры: Шарлто Копли, Данила Козловский, Хейли Беннетт, Андрей Дементьев, Сергей Шнуров, Кирилл Серебренников, Александр Паль, Светлана Устинова, Даша Чаруша, Равшана Куркова
Мировая премьера: 12 сентября 2015
Описание: Прекрасная супружеская жизнь рядом с очаровательной Эстель — это все, что помнит главный герой после того, как просыпается в неизвестной научной лаборатории, где в чувства его приводит собственная жена. Но супруга тут же оказывается похищенной, и ничего не понимающий главный герой Генри уже вынужден преследовать монстра Акана, который украл его жену.
Теперь ради достижения цели Генри готов на многое. Но позже оказывается, что не только он один является врагом для Акана. У подозрительного Джимми тоже свои планы на злодея. Теперь вместе ребятам предстоит спасти Эстель и предотвратить попытку задействовать армию киборгов в борьбе с человечеством. Им предстоит бороться с самим воплощением зла.-Качество: WEB-DLRip
Контейнер: M4V
Видео: H.264, 1024x544, 1.882, 2 200 Kbps, 23.976 fps
Аудио 1: Русский/Дублированный (LINE), AAC / 2.0 / 123 Kbps / 48.0 KHz
Аудио 2: Английский/Оригинальная дорожка , AAC / 2.0 / 125 Kbps / 48.0 KHz-

iTunes Meta Tags

Sort Name: Хардкор
XID: Apple:vendor_id:2015-778218
contentID: 1110916869
Copyright: © 2016 Базелевс Продакшн
Screenwriters: Илья Найшуллер
Producers: Тимур Бекмамбетов, Илья Найшуллер, Екатерина Кононенко
Director: Илья Найшуллер
Cast: Шарлто Копли, Данила Козловский, Хейли Беннетт, Андрей Дементьев, Сергей Шнуров, Кирилл Серебренников, Александр Паль, Светлана Устинова, Даша Чаруша, Равшана Куркова, Пётр Иващенко, Анна Чиповская, Андрей Бархударов
Studio: Базелевс Продакшн, Robusto
Rating: 136
Long Description: Прекрасная супружеская жизнь рядом с очаровательной Эстель - это все, что помнит главный герой после того, как просыпается в неизвестной научной лаборатории, где в чувства его приводит собственная жена. Но супруга тут же оказывается похищенной, и ничего не понимающий главный герой Генри уже вынужден преследовать монстра Акана, который украл его жену.
Теперь ради достижения цели Генри готов на многое. Но позже оказывается, что не только он один является врагом для Акана. У подозрительного Джимми тоже свои планы на злодея. Теперь вместе ребятам предстоит спасти Эстель и предотвратить попытку задействовать армию киборгов в борьбе с человечеством. Им предстоит бороться с самим воплощением зла.
Description: Прекрасная супружеская жизнь рядом с очаровательной Эстель - это все, что помнит главный герой после того, как просыпается в неизвестной научной лаборатории, где в чувства его приводит собственная жена.
Release Date: 2015-09-12T08:00:00Z
Genre: Боевики и приключения
Artist: Илья Найшуллер
Name: Хардкор

MI


General
Complete name : /Users/imac/HandBrake/Hardcore.Henry.(SD).(pk).m4v
Format : MPEG-4
Codec ID : M4V
File size : 1.66 GiB
Duration : 1h 36mn
Overall bit rate mode : Variable
Overall bit rate : 2 456 Kbps
Movie name : Хардкор
Performer : Илья Найшуллер
Director : Илья Найшуллер
Actor : Шарлто Копли / Данила Козловский / Хейли Беннетт / Андрей Дементьев / Сергей Шнуров / Кирилл Серебренников / Александр Паль / Светлана Устинова / Даша Чаруша / Равшана Куркова / Пётр Иващенко / Анна Чиповская / Андрей Бархударов
Screenplay by : Илья Найшуллер
Producer : Тимур Бекмамбетов / Илья Найшуллер / Екатерина Кононенко
Production studio : Базелевс Продакшн, Robusto
Genre : Боевики и приключения
ContentType : Short Film
Description : Прекрасная супружеская жизнь рядом с очаровательной Эстель - это все, что помнит главный герой после того, как просыпается в неизвестной научной лаборатории, где в чувства его приводит собственная жена.
Recorded date : UTC 2015-09-12 08:00:00
Encoded date : UTC 2016-07-07 09:10:39
Tagged date : UTC 2016-07-07 09:12:58
Copyright : © 2016 Базелевс Продакшн
Cover : Yes
Rating : None
Title/Sort : Хардкор
LongDescription : Прекрасная супружеская жизнь рядом с очаровательной Эстель - это все, что помнит главный герой после того, как просыпается в неизвестной научной лаборатории, где в чувства его приводит собственная жена. Но супруга тут же оказывается похищенной, и ничего не понимающий главный герой Генри уже вынужден преследовать монстра Акана, который украл его жену. / Теперь ради достижения цели Генри готов на многое. Но позже оказывается, что не только он один является врагом для Акана. У подозрительного Джимми тоже свои планы на злодея. Теперь вместе ребятам предстоит спасти Эстель и предотвратить попытку задействовать армию киборгов в борьбе с человечеством. Им предстоит бороться с самим воплощением зла.
AppleStoreCatalogID : 1110916869
Vendor : Apple:vendor_id:2015-778218
ContentRating : ru-movie|18+|400|
Video #1
ID : 1
Format : AVC
Format/Info : Advanced Video Codec
Format profile : [url=mailto:[email protected]][email protected][/url]
Format settings, CABAC : Yes
Format settings, ReFrames : 9 frames
Codec ID : avc1
Codec ID/Info : Advanced Video Coding
Duration : 1h 36mn
Source duration : 1h 36mn
Bit rate : 2 200 Kbps
Width : 1 024 pixels
Height : 544 pixels
Display aspect ratio : 1.882
Frame rate mode : Variable
Frame rate : 23.976 fps
Minimum frame rate : 23.810 fps
Maximum frame rate : 24.390 fps
Color space : YUV
Chroma subsampling : 4:2:0
Bit depth : 8 bits
Scan type : Progressive
Bits/(Pixel*Frame) : 0.165
Stream size : 1.49 GiB (90%)
Source stream size : 1.49 GiB (90%)
Title : Main Program
Writing library : x264 core 142 r2479 dd79a61
Encoding settings : cabac=1 / ref=9 / deblock=1:0:0 / analyse=0x3:0x113 / me=umh / subme=9 / psy=1 / psy_rd=1.00:0.00 / mixed_ref=1 / me_range=32 / chroma_me=1 / trellis=1 / 8x8dct=1 / cqm=0 / deadzone=21,11 / fast_pskip=1 / chroma_qp_offset=-2 / threads=36 / lookahead_threads=4 / sliced_threads=0 / nr=0 / decimate=1 / interlaced=0 / bluray_compat=0 / constrained_intra=0 / bframes=6 / b_pyramid=2 / b_adapt=2 / b_bias=0 / direct=1 / weightb=1 / open_gop=0 / weightp=2 / keyint=240 / keyint_min=24 / scenecut=40 / intra_refresh=0 / rc_lookahead=40 / rc=2pass / mbtree=1 / bitrate=2200 / ratetol=1.0 / qcomp=0.60 / qpmin=0 / qpmax=69 / qpstep=4 / cplxblur=20.0 / qblur=0.5 / ip_ratio=1.40 / aq=1:1.00
Language : English
Encoded date : UTC 2016-07-07 09:10:39
Tagged date : UTC 2016-07-07 09:10:43
Color range : Limited
Color primaries : BT.709
Transfer characteristics : BT.709
Matrix coefficients : BT.709
Video #2
ID : 6
Format : JPEG
Codec ID : jpeg
Duration : 1h 36mn
Bit rate mode : Variable
Bit rate : 1 036 bps
Width : 640 pixels
Height : 340 pixels
Display aspect ratio : 1.882
Frame rate mode : Variable
Frame rate : 0.003 fps
Minimum frame rate : 0.002 fps
Maximum frame rate : 0.004 fps
Color space : YUV
Chroma subsampling : 4:2:0
Bit depth : 8 bits
Compression mode : Lossy
Bits/(Pixel*Frame) : 1.587
Stream size : 674 KiB (0%)
Title : Chapter Images
Language : English
Encoded date : UTC 2016-07-07 09:11:31
Tagged date : UTC 2016-07-07 09:11:31
Audio #1
ID : 2
Format : AAC
Format/Info : Advanced Audio Codec
Format profile : LC
Codec ID : 40
Duration : 1h 36mn
Bit rate mode : Variable
Bit rate : 123 Kbps
Maximum bit rate : 209 Kbps
Channel(s) : 2 channels
Channel positions : Front: L R
Sampling rate : 48.0 KHz
Compression mode : Lossy
Stream size : 84.9 MiB (5%)
Title : Russian Stereo
Language : Russian
Encoded date : UTC 2016-07-07 09:10:39
Tagged date : UTC 2016-07-07 09:10:45
Audio #2
ID : 3
Format : AAC
Format/Info : Advanced Audio Codec
Format profile : LC
Codec ID : 40
Duration : 1h 36mn
Bit rate mode : Variable
Bit rate : 125 Kbps
Maximum bit rate : 181 Kbps
Channel(s) : 2 channels
Channel positions : Front: L R
Sampling rate : 48.0 KHz
Compression mode : Lossy
Stream size : 86.8 MiB (5%)
Title : English Stereo
Language : English
Encoded date : UTC 2016-07-07 09:10:39
Tagged date : UTC 2016-07-07 09:10:45
Text
ID : 4
Format : Timed Text
Muxing mode : sbtl
Codec ID : tx3g
Duration : 1h 29mn
Bit rate mode : Variable
Bit rate : 51 bps
Stream size : 33.6 KiB (0%)
Title : English full
Language : English
Encoded date : UTC 2016-07-07 09:10:39
Tagged date : UTC 2016-07-07 09:11:27
Menu #1
00:00:00.000 : Opening Sequence
00:04:00.000 : I Love You Henry
00:12:07.000 : Mercenaries
00:18:41.000 : I\'m Kidding!
00:26:08.000 : You\'re Half Machine
00:34:15.000 : I Can\'t Do It
00:39:20.000 : Just Say Yes
00:43:57.000 : I Was So Scared
00:48:52.000 : Reboot
00:53:25.000 : Don\'t Compromise My Lab
00:59:36.000 : Under My Skin
01:07:16.000 : No More Lab
01:11:20.000 : The Memory Block
01:15:30.000 : The Soldiers
01:24:06.000 : You Didn\'t Make History
01:29:27.000 : End Credits
Menu #2
ID : 5
Codec ID : text
Duration : 1h 36mn
Language : English
Encoded date : UTC 2016-07-07 09:11:27
Tagged date : UTC 2016-07-07 09:11:27
00:00:00.000 : Opening Sequence
00:04:00.000 : I Love You Henry
00:12:07.000 : Mercenaries
00:18:41.000 : I\'m Kidding!
00:26:08.000 : You\'re Half Machine
00:34:15.000 : I Can\'t Do It
00:39:20.000 : Just Say Yes
00:43:57.000 : I Was So Scared
00:48:52.000 : Reboot
00:53:25.000 : Don\'t Compromise My Lab
00:59:36.000 : Under My Skin
01:07:16.000 : No More Lab
01:11:20.000 : The Memory Block
01:15:30.000 : The Soldiers
01:24:06.000 : You Didn\'t Make History
01:29:27.000 : End Credits
Bit rate mode : VBR
x264 [info]: frame I:707 Avg QP:16.30 size: 48205
x264 [info]: frame P:51366 Avg QP:19.80 size: 18176
x264 [info]: frame B:87130 Avg QP:21.64 size: 7207
x264 [info]: consecutive B-frames: 11.8% 11.4% 20.1% 42.6% 7.1% 4.6% 2.3%
x264 [info]: mb I I16..4: 19.3% 57.7% 23.0%
x264 [info]: mb P I16..4: 5.7% 21.0% 3.7% P16..4: 34.3% 15.8% 8.9% 0.0% 0.0% skip:10.6%
x264 [info]: mb B I16..4: 0.5% 2.9% 0.8% B16..8: 37.6% 9.1% 2.3% direct: 5.7% skip:41.0% L0:41.1% L1:50.3% BI: 8.5%
x264 [info]: 8x8 transform intra:68.5% inter:74.2%
x264 [info]: coded y,uvDC,uvAC intra: 67.8% 75.7% 35.3% inter: 23.5% 29.5% 2.6%
x264 [info]: i16 v,h,dc,p: 24% 16% 8% 51%
x264 [info]: i8 v,h,dc,ddl,ddr,vr,hd,vl,hu: 8% 8% 5% 10% 14% 13% 15% 12% 14%
x264 [info]: i4 v,h,dc,ddl,ddr,vr,hd,vl,hu: 9% 10% 3% 8% 15% 14% 16% 10% 15%
x264 [info]: i8c dc,h,v,p: 35% 29% 18% 17%
x264 [info]: Weighted P-Frames: Y:6.2% UV:3.3%
x264 [info]: ref P L0: 59.3% 11.3% 12.5% 5.2% 3.4% 2.5% 2.0% 1.5% 1.9% 0.5% 0.0%
x264 [info]: ref B L0: 82.9% 7.9% 3.6% 1.8% 1.7% 0.9% 0.7% 0.4%
x264 [info]: ref B L1: 95.7% 4.3%
x264 [info]: kb/s:2198.67
Скриншоты:
Яндекс.Метрика
Рейтинг@Mail.ru