[ Сегодня на трекере фрилич! Идет свободное скачивание без начисления Download ]

Запрос в друзья / Friend Request (2016) BDRip [H.264/720p-LQ] [Line]

 

Создавать темы 07-Июл-2016 11:00

- Запрос в друзья / Friend Request (2016) BDRip
«Be careful who you click with»
- Производство: Германия / Seven Pictures, Wiedemann & Berg Filmproduktion
Жанр: Триллер-Режиссер: Симон Ферхоэвен
Продюсер: Квирин Берг, Макс Видерманн, Мэттью Баллен
Актеры: Алисия Дебнем-Кери, Уильям Моусли, Коннор Паоло, Бритт Морган, Брук Маркам, Шон Маркетт, Лизль Алерс, Шэшони Холл-Описание:
Вас добавляет в друзья одноклассник, однокурсник или коллега с работы, с которым вы практически никогда не общались, и начинает буквально атаковать вас сообщениями, почему-то решив, что вы с ним лучшие друзья. Знакомая ситуация? В подобную попадает Лора — главная героиня леденящего кровь триллера «Запрос в друзья». Решение удалить из френд-листа навязчивую и странноватую однокурсницу приведет к таким последствиям, которые не смогли бы предугадать даже самые большие любители хорроров.
Возраст: 16+ (зрителям, достигшим 16 лет)
Рейтинг MPAA: этот продукт не был классифицирован
Дата мировой премьеры: 7 января 2016
Дата российской премьеры: 17 марта 2016, «Люксор»
Продолжительность: 01:32:27
Качество видео: BDRip [thumb]http://multi-up.com/1106996[/thumb]
Перевод: Дублированный (Line) Oфициальный
Субтиры: Отсутствуют
Видео: AVC/H.264, 1280x544 (2.35:1), 23.976 fps, 2052 Kbps (0.123 bit/pixel)
Аудио 01: AC-3, 48.0 KHz, 2 ch, 192 Kbps, CBR | Русский (DUB)
Аудио 02: DTS, 48.0 KHz, 6 ch, 1510 Kbps, CBR | Немецкий

Mediainfo:

General
Unique ID                      : 186362642911724622263065737963352137307 (0x8C3423B2FCD188BB863651A99E589E5B)
Complete name                  : C:\Фильмы\Friend.Request.2016.BDRip.720p.mkv
Format                         : Matroska
Format version                 : Version 2
File size                      : 2.47 GiB
Duration                       : 1h 32mn
Overall bit rate               : 3 829 Kbps
Encoded date                   : UTC 2016-06-21 18:13:51
Writing application            : mkvmerge v8.3.0 ('Over the Horizon') 64bit
Writing library                : libebml v1.3.1 + libmatroska v1.4.2
DURATION                       : 01:32:27.488000000
NUMBER_OF_FRAMES               : 173359
NUMBER_OF_BYTES                : 133139712
_STATISTICS_WRITING_APP        : mkvmerge v8.3.0 ('Over the Horizon') 64bit
_STATISTICS_WRITING_DATE_UTC   : 2016-06-21 18:13:51
_STATISTICS_TAGS               : BPS DURATION NUMBER_OF_FRAMES NUMBER_OF_BYTES
Video
ID                             : 1
Format                         : AVC
Format/Info                    : Advanced Video Codec
Format profile                 : [url=mailto:[email protected]][email protected][/url]
Format settings, CABAC         : Yes
Format settings, ReFrames      : 5 frames
Codec ID                       : V_MPEG4/ISO/AVC
Duration                       : 1h 32mn
Bit rate                       : 2 052 Kbps
Width                          : 1 280 pixels
Height                         : 544 pixels
Display aspect ratio           : 2.35:1
Frame rate mode                : Constant
Frame rate                     : 23.976 fps
Color space                    : YUV
Chroma subsampling             : 4:2:0
Bit depth                      : 8 bits
Scan type                      : Progressive
Bits/(Pixel*Frame)             : 0.123
Stream size                    : 1.33 GiB (54%)
Title                          : encounters-unfriend_720p
Writing library                : x264 core 148 r2694 3b70645
Encoding settings              : cabac=1 / ref=5 / deblock=1:-1:-1 / analyse=0x3:0x133 / me=umh / subme=7 / psy=1 / psy_rd=1.00:0.15 / mixed_ref=1 / me_range=16 / chroma_me=1 / trellis=1 / 8x8dct=1 / cqm=0 / deadzone=21,11 / fast_pskip=0 / chroma_qp_offset=-3 / threads=17 / lookahead_threads=2 / sliced_threads=0 / nr=0 / decimate=1 / interlaced=0 / bluray_compat=0 / constrained_intra=0 / bframes=3 / b_pyramid=2 / b_adapt=1 / b_bias=0 / direct=1 / weightb=1 / open_gop=0 / weightp=2 / keyint=250 / keyint_min=23 / scenecut=40 / intra_refresh=0 / rc_lookahead=40 / rc=crf / mbtree=1 / crf=20.0 / qcomp=0.60 / qpmin=0 / qpmax=69 / qpstep=4 / ip_ratio=1.40 / aq=1:1.00
Default                        : Yes
Forced                         : No
Audio #1
ID                             : 2
Format                         : AC-3
Format/Info                    : Audio Coding 3
Mode extension                 : CM (complete main)
Format settings, Endianness    : Big
Codec ID                       : A_AC3
Duration                       : 1h 32mn
Bit rate mode                  : Constant
Bit rate                       : 192 Kbps
Channel(s)                     : 2 channels
Channel positions              : Front: L R
Sampling rate                  : 48.0 KHz
Compression mode               : Lossy
Stream size                    : 127 MiB (5%)
Language                       : Russian
Default                        : Yes
Forced                         : No
Audio #2
ID                             : 3
Format                         : DTS
Format/Info                    : Digital Theater Systems
Mode                           : 16
Format settings, Endianness    : Big
Codec ID                       : A_DTS
Duration                       : 1h 32mn
Bit rate mode                  : Constant
Bit rate                       : 1 509 Kbps
Channel(s)                     : 6 channels
Channel positions              : Front: L C R, Side: L R, LFE
Sampling rate                  : 48.0 KHz
Bit depth                      : 24 bits
Compression mode               : Lossy
Stream size                    : 998 MiB (39%)
Title                          : German DTS 5.1 @ 1 510 Kbps
Language                       : German
Default                        : No
Forced                         : No
Menu
00:00:00.000                   : en:00:00:00.000
00:06:16.585                   : en:00:06:16.585
00:15:28.177                   : en:00:15:28.177
00:23:20.774                   : en:00:23:20.774
00:32:18.645                   : en:00:32:18.645
00:42:23.875                   : en:00:42:23.875
00:47:51.410                   : en:00:47:51.410
00:57:54.429                   : en:00:57:54.429
01:05:29.300                   : en:01:05:29.300
01:13:31.157                   : en:01:13:31.157
01:19:58.669                   : en:01:19:58.669
01:26:23.929                   : en:01:26:23.929
Скриншоты:
Яндекс.Метрика
Рейтинг@Mail.ru