Терродактиль / Terrordactyl (2016) HDRip [VO]

 

Создавать темы 07-Июл-2016 11:00

- Терродактиль / Terrordactyl (2016) HDRip - Производство: США / 3rd Films, Terrordactyl
Жанр: Боевик, Комедия
Режиссер: Дон Биттерс III, Джофф Райснер
Продюсер: Эрик Эдмондс, Дон Биттерс III, Джон Бошер
Актеры: Джек Кьюнтон, Бьянка Хаазе, Кристофер Джон Дженнингс, Кевин Китор, Адам Ки, Дэвид Ландри, Кэндис Нюнес, Леонэль Олива, Виктория Саммер, Джейсон Тобиаш
Описание:
На Лос-Анджелес обрушивается метеоритный дождь. На этом решают заработать два лучших друга Ларс и Джонас. Они хотят раздобыть куски инопланетного камня, чтобы выгодно их продать. Но они с ужасом обнаруживают, что на город напали древние существа - терродактили. Крылатые ящеры безжалостно уничтожают все на своем пути. Джонас и Ларс вместе с Валери и Кэндис должны сделать все, чтобы рептилии вновь стали вымершим видом...-Дата мировой премьеры: 16 апреля 2016
Продолжительность: 01:38:03
Качество видео: HDRip http://sendfile.su/1247512
Перевод: Одноголосый закадровый, любительский (Хихидок)
Вид субтитров: Отсутствуют
Видео: Xvid, 720x400, ~1627 Kbps
Аудио 1: AC 3, 2 ch, 192 kbps, CBR | Русский
Аудио 2: AC 3, 2 ch, 192 kbps, CBR | Английский

Mediainfo:

Общее
Полное имя                               : D:\KINO 3\011LETTO\Terrodactil.RU.avi
Формат                                   : AVI
Формат/Информация                        : Audio Video Interleave
Размер файла                             : 1,39 Гбайт
Продолжительность                        : 1 ч. 38 м.
Общий поток                              : 2025 Кбит/сек
Программа кодирования                    : VirtualDubMod 1.5.10.3 | (build 2550/release)
Библиотека кодирования                   : VirtualDubMod build 2550/release
Видео
Идентификатор                            : 0
Формат                                   : MPEG-4 Visual
Профиль формата                          : Advanced [email protected]
Параметр BVOP формата                    : 2
Параметр QPel формата                    : Нет
Параметр GMC формата                     : Без точки перехода
Параметр матрицы формата                 : Default (H.263)
Идентификатор кодека                     : XVID
Идентификатор кодека/Подсказка           : XviD
Продолжительность                        : 1 ч. 38 м.
Битрейт                                  : 1627 Кбит/сек
Ширина                                   : 720 пикселей
Высота                                   : 400 пикселей
Соотношение сторон                       : 16:9
Частота кадров                           : 23,976 (23976/1000) кадра/сек
Цветовое пространство                    : YUV
Субдискретизация насыщенности            : 4:2:0
Битовая глубина                          : 8 бит
Тип развёртки                            : Прогрессивная
Метод сжатия                             : С потерями
Бит/(Пиксели*Кадры)                      : 0.236
Размер потока                            : 1,11 Гбайт (80%)
Библиотека кодирования                   : XviD 73
Аудио #1
Идентификатор                            : 1
Формат                                   : AC-3
Формат/Информация                        : Audio Coding 3
Расширение режима                        : CM (complete main)
Параметр Endianness формата              : Big
Идентификатор кодека                     : 2000
Продолжительность                        : 1 ч. 38 м.
Вид битрейта                             : Постоянный
Битрейт                                  : 192 Кбит/сек
Каналы                                   : 2 канала
Расположение каналов                     : Front: L R
Частота                                  : 48,0 КГц
Частота кадров                           : 31,250 кадров/сек (1536 spf)
Метод сжатия                             : С потерями
Размер потока                            : 135 Мбайт (9%)
Выравнивание                             : Разделение по промежуткам
Продолжительность промежутка             : 42  мс. (1,00 видеокадр)
Время предзагрузки промежутка            : 500  мс.
Аудио #2
Идентификатор                            : 2
Формат                                   : AC-3
Формат/Информация                        : Audio Coding 3
Расширение режима                        : CM (complete main)
Параметр Endianness формата              : Big
Идентификатор кодека                     : 2000
Продолжительность                        : 1 ч. 38 м.
Вид битрейта                             : Постоянный
Битрейт                                  : 192 Кбит/сек
Каналы                                   : 2 канала
Расположение каналов                     : Front: L R
Частота                                  : 48,0 КГц
Частота кадров                           : 31,250 кадров/сек (1536 spf)
Метод сжатия                             : С потерями
Размер потока                            : 135 Мбайт (9%)
Выравнивание                             : Разделение по промежуткам
Продолжительность промежутка             : 42  мс. (1,00 видеокадр)
Время предзагрузки промежутка            : 500  мс.
Скриншоты:
Яндекс.Метрика
Рейтинг@Mail.ru