Восставший / Risen (2016) BDRip [H.264]

 

Создавать темы 07-Июл-2016 11:00

-Восставший / Risen (2016) BDRip [H.264] - Производство: США
Жанр: Боевик, драма, детектив, приключения
Режиссер: Кевин Рейнольдс
Актеры: Джозеф Файнс, Том Фелтон, Питер Фёрт, Клифф Кёртис, Мария Ботто, Луис Кальехо, Антонио Хиль-Мартинес, Ричард Этуилл, Марк Киллин, Стюарт Скудамор
Описание: В картине пойдет речь о первых 40 днях, последовавших вслед за воскресением Христа. Основным персонажем станет атеистически настроенный римский центурион, которого прокуратор Иудеи, Понтий Пилат, посылает разузнать с чем связаны слухи о воскресении Христа, а также попытаться отыскать тело этого новоявленного мессии.-Рейтинг MPAA: PG-13 (детям до 13 лет просмотр нежелателен)
Дата мировой премьеры: 19 февраля 2016

Релиз: Stalker oK (New-Team)
Продолжительность: 01:47:38
Качество видео: BDRip (H.264) http://sendfile.su/1247867
Перевод: Профессиональный многоголосый (iTunes)
Вид субтитров: Вшитые, отключаемые
Язык субтитров: русские (полные), английские (полные, SDH)
Видео: AVC/H.264, 960x400 , 1490 Kbps
Аудио: AC3, 6 ch, 384 kbps

Mediainfo:

Общее
Уникальный идентификатор                 : 201103011608815912521716215361337937606 (0x974B07FC7C86FB66A0801D6DA6BDCEC6)
Полное имя                               : F:\Risen.2016.BDRip-AVC.MVO.NNM-CLUB.mkv
Формат                                   : Matroska
Версия формата                           : Version 4 / Version 2
Размер файла                             : 1,41 Гбайт
Продолжительность                        : 1 ч. 47 м.
Общий поток                              : 1875 Кбит/сек
Название фильма                          : Risen (2016) (New-Team) (Rip by Stalker oK)
Дата кодирования                         : UTC 2016-07-05 13:11:42
Программа кодирования                    : mkvmerge v8.6.1 ('Flying') 64bit
Библиотека кодирования                   : libebml v1.3.3 + libmatroska v1.4.4
DURATION                                 : 01:47:37.408000000
NUMBER_OF_FRAMES                         : 201794
NUMBER_OF_BYTES                          : 309955584
_STATISTICS_WRITING_APP                  : mkvmerge v8.6.1 ('Flying') 64bit
_STATISTICS_WRITING_DATE_UTC             : 2016-07-05 13:11:42
_STATISTICS_TAGS                         : BPS DURATION NUMBER_OF_FRAMES NUMBER_OF_BYTES
Видео
Идентификатор                            : 1
Формат                                   : AVC
Формат/Информация                        : Advanced Video Codec
Профиль формата                          : [url=mailto:[email protected]][email protected][/url]
Параметр CABAC формата                   : Да
Параметр ReFrames формата                : 14 кадров
Идентификатор кодека                     : V_MPEG4/ISO/AVC
Продолжительность                        : 1 ч. 47 м.
Битрейт                                  : 1490 Кбит/сек
Ширина                                   : 960 пикселей
Высота                                   : 400 пикселей
Соотношение сторон                       : 2,40:1
Режим частоты кадров                     : Постоянный
Частота кадров                           : 23,976 кадра/сек
Цветовое пространство                    : YUV
Субдискретизация насыщенности            : 4:2:0
Битовая глубина                          : 8 бит
Тип развёртки                            : Прогрессивная
Бит/(Пиксели*Кадры)                      : 0.162
Размер потока                            : 1,09 Гбайт (78%)
Заголовок                                : Risen (2016) (New-Team) (Rip by Stalker oK)
Библиотека кодирования                   : x264 core 148 r2665kMod a01e339
Настройки программы                      : cabac=1 / ref=14 / deblock=1:-3:-2 / analyse=0x3:0x133 / me=umh / subme=10 / psy=1 / fade_compensate=0.00 / psy_rd=1.00:0.02 / mixed_ref=1 / me_range=32 / chroma_me=1 / trellis=2 / 8x8dct=1 / cqm=0 / deadzone=21,11 / fast_pskip=0 / chroma_qp_offset=-3 / threads=12 / lookahead_threads=3 / sliced_threads=0 / nr=0 / decimate=0 / interlaced=0 / bluray_compat=0 / constrained_intra=0 / fgo=0 / bframes=14 / b_pyramid=2 / b_adapt=2 / b_bias=0 / direct=3 / weightb=1 / open_gop=0 / weightp=2 / keyint=240 / keyint_min=23 / scenecut=40 / intra_refresh=0 / rc_lookahead=60 / rc=2pass / mbtree=0 / bitrate=1490 / ratetol=1.0 / qcomp=0.65 / qpmin=0 / qpmax=69 / qpstep=4 / cplxblur=20.0 / qblur=0.5 / vbv_maxrate=50000 / vbv_bufsize=62500 / nal_hrd=none / filler=0 / ip_ratio=1.40 / pb_ratio=1.30 / aq=1:0.85
Default                                  : Да
Forced                                   : Нет
DURATION                                 : 01:47:38.285000000
NUMBER_OF_FRAMES                         : 154844
NUMBER_OF_BYTES                          : 1202424432
_STATISTICS_WRITING_APP                  : mkvmerge v8.6.1 ('Flying') 64bit
_STATISTICS_WRITING_DATE_UTC             : 2016-07-05 13:11:42
_STATISTICS_TAGS                         : BPS DURATION NUMBER_OF_FRAMES NUMBER_OF_BYTES
Аудио
Идентификатор                            : 2
Формат                                   : AC-3
Формат/Информация                        : Audio Coding 3
Расширение режима                        : CM (complete main)
Параметр Endianness формата              : Big
Идентификатор кодека                     : A_AC3
Продолжительность                        : 1 ч. 47 м.
Вид битрейта                             : Постоянный
Битрейт                                  : 384 Кбит/сек
Каналы                                   : 6 каналов
Расположение каналов                     : Front: L C R, Side: L R, LFE
Частота                                  : 48,0 КГц
Битовая глубина                          : 16 бит
Метод сжатия                             : С потерями
Размер потока                            : 296 Мбайт (20%)
Язык                                     : Russian
Default                                  : Да
Forced                                   : Да
Текст #1
Идентификатор                            : 3
Формат                                   : UTF-8
Идентификатор кодека                     : S_TEXT/UTF8
Идентификатор кодека/Информация          : UTF-8 Plain Text
Язык                                     : Russian
Default                                  : Нет
Forced                                   : Нет
Текст #2
Идентификатор                            : 4
Формат                                   : UTF-8
Идентификатор кодека                     : S_TEXT/UTF8
Идентификатор кодека/Информация          : UTF-8 Plain Text
Язык                                     : English
Default                                  : Нет
Forced                                   : Нет
Текст #3
Идентификатор                            : 5
Формат                                   : UTF-8
Идентификатор кодека                     : S_TEXT/UTF8
Идентификатор кодека/Информация          : UTF-8 Plain Text
Заголовок                                : SDH
Язык                                     : English
Default                                  : Нет
Forced                                   : Нет
Меню
00:00:00.000                             : en:Chapter 01
00:06:50.034                             : en:Chapter 02
00:14:18.732                             : en:Chapter 03
00:21:47.889                             : en:Chapter 04
00:27:34.903                             : en:Chapter 05
00:33:21.082                             : en:Chapter 06
00:40:03.609                             : en:Chapter 07
00:46:19.193                             : en:Chapter 08
00:54:06.243                             : en:Chapter 09
01:00:06.185                             : en:Chapter 10
01:07:53.027                             : en:Chapter 11
01:13:54.847                             : en:Chapter 12
01:19:46.364                             : en:Chapter 13
01:25:42.387                             : en:Chapter 14
01:33:16.132                             : en:Chapter 15
01:38:41.832                             : en:Chapter 16
Скриншоты:
Яндекс.Метрика
Рейтинг@Mail.ru