Страж-лев: Возвращение Рыка / The Lion Guard: Return of the Roar (2015) WEB-DLRip [H.264/720p] [Line]

 

Создавать темы 07-Июл-2016 10:53

- Страж-лев: Возвращение Рыка / The Lion Guard: Return of the Roar (2015) WEB-DLRip [H.264/720p] [Line]- Производство: США / Walt Disney Television Animation
Жанр: Приключения, Комедия
Режиссер: Хауи Паркинс-Описание:
Второму детенышу царя зверей Симбы и Налы по имени Кион уготована особая участь в Прайде. Он должен стать на защиту этой территории создав свою львиную гвардию. Именно Кион должен стать защитником Прайда, ведь он овладел могущественным рыком, которым обладали его далекие предки. Однако, вместо того, чтобы взять себе в помощники львов, Кион собирает отряд из других зверей, которые обладает различными навыками. Кроме того, в этих животных Кион уверен на все сто процентов. Теперь спокойствие Прайда зависит от них...-Продолжительность: 00:44:16
Качество видео: WEB-DLRip
Перевод: Дублированный (Чистый звук)
Язык субтитров: Русский (перевод песен, хардсаб)
Вид субтитров: Вшитые неотключаемые (на песни)
Видео: AVC, 1280x720 (16:9), 23.976 fps, 4 736 Kbps (0.214 bit/pixel)
Аудио 1: Русский: AC-3, 48.0 KHz, 2 ch, 192 Kbps, CBR
Аудио 2: Английский: MP3, 48.0 KHz, 2 ch, 192 Kbps, CBR

Mediainfo:

Формат                                   : Matroska
Версия формата                           : Version 4 / Version 2
Размер файла                             : 1,58 Гбайт
Продолжительность                        : 44 м.
Общий поток                              : 5122 Кбит/сек
Дата кодирования                         : UTC 2016-01-05 08:30:41
Программа кодирования                    : mkvmerge v8.3.0 ('Over the Horizon') 64bit
Библиотека кодирования                   : libebml v1.3.1 + libmatroska v1.4.2
DURATION                                 : 00:44:16.512000000
NUMBER_OF_FRAMES                         : 83016
NUMBER_OF_BYTES                          : 63756288
_STATISTICS_WRITING_APP                  : mkvmerge v8.3.0 ('Over the Horizon') 64bit
_STATISTICS_WRITING_DATE_UTC             : 2016-01-05 08:30:41
_STATISTICS_TAGS                         : BPS DURATION NUMBER_OF_FRAMES NUMBER_OF_BYTES
Видео
Идентификатор                            : 1
Формат                                   : AVC
Формат/Информация                        : Advanced Video Codec
Профиль формата                          : [url=mailto:[email protected]][email protected][/url]
Параметр CABAC формата                   : Да
Параметр ReFrames формата                : 2 кадра
Идентификатор кодека                     : V_MPEG4/ISO/AVC
Продолжительность                        : 44 м.
Битрейт                                  : 4736 Кбит/сек
Ширина                                   : 1280 пикселей
Высота                                   : 720 пикселей
Соотношение сторон                       : 16:9
Режим частоты кадров                     : Постоянный
Частота кадров                           : 23,976 кадра/сек
Цветовое пространство                    : YUV
Субдискретизация насыщенности            : 4:2:0
Битовая глубина                          : 8 бит
Тип развёртки                            : Прогрессивная
Бит/(Пиксели*Кадры)                      : 0.214
Размер потока                            : 1,43 Гбайт (91%)
Библиотека кодирования                   : x264 core 66 r1101M b69548a
Настройки программы                      : cabac=1 / ref=1 / deblock=1:0:0 / analyse=0x3:0x113 / me=hex / subme=6 / psy_rd=1,0:0,0 / mixed_ref=0 / me_range=16 / chroma_me=1 / trellis=0 / 8x8dct=1 / cqm=0 / deadzone=21,11 / chroma_qp_offset=-2 / threads=6 / nr=0 / decimate=1 / mbaff=0 / bframes=2 / b_pyramid=0 / b_adapt=1 / b_bias=0 / direct=1 / wpredb=1 / keyint=250 / keyint_min=25 / scenecut=40(pre) / rc=2pass / bitrate=4736 / ratetol=1,0 / qcomp=0,60 / qpmin=10 / qpmax=51 / qpstep=4 / cplxblur=20,0 / qblur=0,5 / ip_ratio=1,40 / pb_ratio=1,30 / aq=1:1,00
Default                                  : Да
Forced                                   : Нет
Аудио #1
Идентификатор                            : 2
Формат                                   : AC-3
Формат/Информация                        : Audio Coding 3
Расширение режима                        : CM (complete main)
Параметр Endianness формата              : Big
Идентификатор кодека                     : A_AC3
Продолжительность                        : 44 м.
Вид битрейта                             : Постоянный
Битрейт                                  : 192 Кбит/сек
Каналы                                   : 2 канала
Расположение каналов                     : Front: L R
Частота                                  : 48,0 КГц
Битовая глубина                          : 16 бит
Метод сжатия                             : С потерями
Размер потока                            : 60,8 Мбайт (4%)
Язык                                     : Russian
Default                                  : Да
Forced                                   : Нет
Аудио #2
Идентификатор                            : 3
Формат                                   : MPEG Audio
Версия формата                           : Version 1
Профиль формата                          : Layer 3
Идентификатор кодека                     : A_MPEG/L3
Идентификатор кодека/Подсказка           : MP3
Продолжительность                        : 44 м.
Вид битрейта                             : Постоянный
Битрейт                                  : 192 Кбит/сек
Каналы                                   : 2 канала
Частота                                  : 48,0 КГц
Метод сжатия                             : С потерями
Размер потока                            : 60,8 Мбайт (4%)
Default                                  : Нет
Forced                                   : Нет
Скриншоты:
Яндекс.Метрика
Рейтинг@Mail.ru