Приключения Лотты из Самоделкино / Leiutajatekula Lotte (2006) DVDRip [H.264]

 

Создавать темы 07-Июл-2016 10:53

-Приключения Лотты из Самоделкино / Leiutajatekula Lotte (2006) DVDRip [H.264] - Русское название: Приключения Лотты из Самоделкино
Оригинальное название: Leiutajatekula Lotte
Год выпуска: 2006
Жанр: мультфильм, комедия, семейный
Перевод: Дублированный-Режиссер: Хейки Эрниц, Янно Пылдмаа
Сценарий: Янно Пылдмаа, Хейки Эрниц, Андрус Кивиряхк
Продюсеры: Рийна Сильдос, Калев Тамм, Vilnis Kalnaellis
Композитор: Свен Грюнберг
Художник: Хейки Эрниц
Монтаж: Янно Пылдмаа
Озвучка: Ани Лорак и Гарик Сукачёв-[thumb]http://multi-up.com/750056[/thumb]
Дата мировой премьеры: 23 мая 2006
Описание фильма:
Создатели мультфильма приглашают вас в деревню изобретателей Самоделкино. Здесь живут маленькая собачка Лотта и ее веселые друзья.-Продолжительность: 01:18:17
Качество видео: DVDRip
Видеокодек: MPEG-4 AVC/H.264
Битрейт видео: ~2243 kb/s
Размер кадра: 768x432
Аудиокодек: AC3 6 ch
Битрейт аудио: 192 kb/s

MediaInfo

Формат : AVI
Формат/Информация : Audio Video Interleave
Размер файла : 1,34 Гбайт
Продолжительность : 1 ч. 18 м.
Общий поток : 2445 Кбит/сек
Программа кодирования : VirtualDubMod 1.5.10.2 (build 2540/release)
Библиотека кодирования : VirtualDubMod build 2540/release
Видео
Идентификатор : 0
Формат : AVC
Формат/Информация : Advanced Video Codec
Профиль формата : [url=mailto:[email protected]][email protected][/url]
Параметр CABAC формата : Нет
Параметр ReFrames формата : 3 кадра
Идентификатор кодека : h264
Продолжительность : 1 ч. 18 м.
Битрейт : 2243 Кбит/сек
Ширина : 768 пикселей
Высота : 432 пикселя
Соотношение сторон : 16:9
Частота кадров : 25,000 кадров/сек
Цветовое пространство : YUV
Субдискретизация насыщенности : 4:2:0
Битовая глубина : 8 бит
Тип развёртки : Прогрессивная
Бит/(Пиксели*Кадры) : 0.270
Размер потока : 1,23 Гбайт (92%)
Библиотека кодирования : x264 core 79 r1342kMod e8501ef
Настройки программы : cabac=0 / ref=3 / deblock=1:0:0 / analyse=0x3:0x113 / me=hex / subme=7 / psy=1 / psy_rd=1.0:0.0 / mixed_ref=1 / me_range=16 / chroma_me=1 / trellis=0 / 8x8dct=1 / cqm=0 / deadzone=21,11 / chroma_qp_offset=-2 / threads=3 / nr=0 / decimate=1 / mbaff=0 / constrained_intra=0 / bframes=3 / b_pyramid=0 / b_adapt=1 / b_bias=0 / direct=1 / wpredb=1 / wpredp=2 / keyint=250 / keyint_min=25 / scenecut=40 / rc_lookahead=40 / rc=2pass / mbtree=1 / bitrate=2243 / ratetol=1.0 / qcomp=0.60 / qpmin=10 / qpmax=51 / qpstep=4 / cplxblur=20.0 / qblur=0.5 / ip_ratio=1.40 / aq=1:1.00
Аудио
Идентификатор : 1
Формат : AC-3
Формат/Информация : Audio Coding 3
Расширение режима : CM (complete main)
Параметр Endianness формата : Big
Идентификатор кодека : 2000
Продолжительность : 1 ч. 18 м.
Вид битрейта : Постоянный
Битрейт : 192 Кбит/сек
Каналы : 6 каналов
Расположение каналов : Front: L C R, Side: L R, LFE
Частота : 48,0 КГц
Битовая глубина : 16 бит
Метод сжатия : С потерями
Размер потока : 108 Мбайт (8%)
Выравнивание : Соединение по промежуткам
Продолжительность промежутка : 40 мс. (1,00 видеокадр)
Время предзагрузки промежутка : 512 мс.

Скриншоты:

Яндекс.Метрика
Рейтинг@Mail.ru