[ Сегодня на трекере фрилич! Идет свободное скачивание без начисления Download ]

Земное ядро / The Core (2003) [720p] BDRip

 

Создавать темы 06-Июл-2016 14:39

-Земное ядро / The Core (2003) BDRip- Русское название: Земное ядро
Оригинальное название: The Core
Год выпуска: 2003
Страна: США, Великобритания
Жанр: Фантастика, Боевик, Приключения--Режиссер: Джон Эмиел
Актеры: Аарон Экхарт, Хилари Суэнк, Делрой Линдо, Стэнли Туччи, ДиДжей Куаллс, Ричард Дженкинс, Чеки Карио, Брюс Гринвуд, Элфри Вудард, Кристофер Шайер, Рэй Галлетти, Эйлин Педде, Рекха Шарма, Том Шолте, Гленн Моршауэр, Энтони Харрисон, Барт Андерсон, Николь Леруа, Джастин Каллэн, Крис Хэмпфри, Дайон Джонстоун, Фред Эвануик, Хротгар Мэтьюз, Шоун Грин, Дженнифер Спенс, Майкл Ст. Джон Смит, Джон Шоу, Фред Китинг, Роза Ди Бриджида, Роберто Роберто, Грег Беннетт, Мэтт Уинстон, Клер Райли--Описание фильма: Герой картины, геофизик Джош Кийз, сделал шокирующее открытие: ядро земли перестало вращаться. Электромагнитное поле нашей планеты разрушается, и скоро Земля погибнет! Есть лишь одна надежда: Кийз с командой первоклассных ученых отправится в экспедицию к остановившемуся ядру на уникальном термостойком корабле, чтобы… взорвать ядерный заряд. Этот взрыв должен будет заставить вращаться злополучное ядро, и человечество будет спасено! Путешествие к центру Земли начинается!--Продолжительность: 02:14:57
Перевод: Дублированный, многоголосый
Язык субтитров: Русские, английские
Вид субтитров: Вшитые отключаемые--Качество видео: BDRip
Видеокодек: MPEG-4 AVC/H.264
Битрейт видео: ~4411 Кбит/с
Размер кадра: 1280x544
Аудио 1: Русский; AC3; 192 Kbps; CBR; 2 ch - Дублированный
Аудио 2: Русский; DTS; (1536) 1510 Kbps; CBR; 6 ch - Многоголосый
Аудио 3: Украинский; AC3; 192 Kbps; CBR; 2 ch - Многоголосый
Аудио 4: Англ-ий; DTS; (1536) 1510 Kbps; CBR; 6 ch-

Mediainfo

General
Unique ID : 225015495951532120069661959596246830959 (0xA948687D3387A86F9B7BDE9782E80F6F)
Complete name : G:\The.Core.2003.720p.BDRip.mkv
Format : Matroska
Format version : Version 2
File size : 7.37 GiB
Duration : 2h 14mn
Overall bit rate : 7 813 Kbps
Movie name : CMEGroup_BLUEBIRD
Encoded date : UTC 2012-09-24 14:58:45
Writing application : mkvmerge v5.8.0 ('No Sleep / Pillow') built on Sep 2 2012 15:37:04
Writing library : libebml v1.2.3 + libmatroska v1.3.0
Video
ID : 1
Format : AVC
Format/Info : Advanced Video Codec
Format profile : [url=mailto:[email protected]][email protected][/url]
Format settings, CABAC : Yes
Format settings, ReFrames : 12 frames
Codec ID : V_MPEG4/ISO/AVC
Duration : 2h 14mn
Bit rate : 4 411 Kbps
Width : 1 280 pixels
Height : 544 pixels
Display aspect ratio : 2.35:1
Frame rate : 23.976 fps
Color space : YUV
Chroma subsampling : 4:2:0
Bit depth : 8 bits
Scan type : Progressive
Bits/(Pixel*Frame) : 0.264
Stream size : 4.01 GiB (54%)
Writing library : x264 core 124 r2197 69a0443
Encoding settings : cabac=1 / ref=12 / deblock=1:-3:-3 / analyse=0x3:0x113 / me=umh / subme=10 / psy=1 / psy_rd=1.10:0.15 / mixed_ref=1 / me_range=32 / chroma_me=1 / trellis=2 / 8x8dct=1 / cqm=0 / deadzone=21,11 / fast_pskip=0 / chroma_qp_offset=-2 / threads=18 / sliced_threads=0 / nr=0 / decimate=1 / interlaced=0 / bluray_compat=0 / constrained_intra=0 / bframes=6 / b_pyramid=2 / b_adapt=2 / b_bias=0 / direct=3 / weightb=1 / open_gop=0 / weightp=2 / keyint=250 / keyint_min=23 / scenecut=40 / intra_refresh=0 / rc_lookahead=60 / rc=2pass / mbtree=0 / bitrate=4411 / ratetol=1.0 / qcomp=0.60 / qpmin=0 / qpmax=69 / qpstep=4 / cplxblur=20.0 / qblur=0.5 / vbv_maxrate=40000 / vbv_bufsize=30000 / nal_hrd=none / ip_ratio=1.40 / pb_ratio=1.30 / aq=1:0.80
Language : English
Default : Yes
Forced : No
Audio #1
ID : 2
Format : AC-3
Format/Info : Audio Coding 3
Format profile : Dolby Digital
Mode extension : CM (complete main)
Format settings, Endianness : Big
Codec ID : A_AC3
Duration : 2h 14mn
Bit rate mode : Constant
Bit rate : 192 Kbps
Channel(s) : 2 channels
Channel positions : Front: L R
Sampling rate : 48.0 KHz
Bit depth : 16 bits
Compression mode : Lossy
Stream size : 185 MiB (2%)
Title : DUB
Language : Russian
Default : Yes
Forced : No
Audio #2
ID : 3
Format : DTS
Format/Info : Digital Theater Systems
Codec ID : A_DTS
Duration : 2h 14mn
Bit rate mode : Constant
Bit rate : 1 510 Kbps
Channel(s) : 6 channels
Channel positions : Front: L C R, Side: L R, LFE
Sampling rate : 48.0 KHz
Bit depth : 24 bits
Compression mode : Lossy
Stream size : 1.42 GiB (19%)
Title : MVO
Language : Russian
Default : No
Forced : No
Audio #3
ID : 4
Format : AC-3
Format/Info : Audio Coding 3
Mode extension : CM (complete main)
Format settings, Endianness : Big
Codec ID : A_AC3
Duration : 2h 14mn
Bit rate mode : Constant
Bit rate : 192 Kbps
Channel(s) : 2 channels
Channel positions : Front: L R
Sampling rate : 48.0 KHz
Bit depth : 16 bits
Compression mode : Lossy
Stream size : 185 MiB (2%)
Language : Ukrainian
Default : No
Forced : No
Audio #4
ID : 5
Format : DTS
Format/Info : Digital Theater Systems
Codec ID : A_DTS
Duration : 2h 14mn
Bit rate mode : Constant
Bit rate : 1 510 Kbps
Channel(s) : 6 channels
Channel positions : Front: L C R, Side: L R, LFE
Sampling rate : 48.0 KHz
Bit depth : 24 bits
Compression mode : Lossy
Stream size : 1.42 GiB (19%)
Language : English
Default : No
Forced : No
Text #1
ID : 6
Format : UTF-8
Codec ID : S_TEXT/UTF8
Codec ID/Info : UTF-8 Plain Text
Language : Russian
Default : Yes
Forced : No
Text #2
ID : 7
Format : UTF-8
Codec ID : S_TEXT/UTF8
Codec ID/Info : UTF-8 Plain Text
Language : English
Default : No
Forced : No
Menu
00:00:00.000 : en:Unexplained Deaths
00:07:12.807 : en:Frenzied Birds
00:11:09.002 : en:Endeavour Landing
00:18:15.261 : en:Government Secrets
00:27:57.342 : en:Unobtainium
00:32:53.972 : en:Help From The Rat
00:35:58.490 : en:The Crew
00:40:12.994 : en:Preparing For The Mission
00:47:26.761 : en:Superstorm
00:50:08.464 : en:Virgil Is Launched
01:01:19.593 : en:Giant Gem Bubble
01:11:50.056 : en:Serge
01:22:25.899 : en:Project Destiny
01:29:28.196 : en:EM Tear
01:33:43.034 : en:Plan D
01:39:00.643 : en:Worth Dying For
01:44:38.355 : en:Stones In The Pond
01:52:21.109 : en:Healing The Earth
01:58:07.247 : en:Saved By Whales
02:03:58.014 : en:Unsung Heroes
-Скриншоты:
-Время раздачи: С 09:00 до 24:00
Яндекс.Метрика
Рейтинг@Mail.ru