[ Сегодня на трекере фрилич! Идет свободное скачивание без начисления Download ]

Терминатор: Генезис / Terminator Genisys (2015) BDRip [H.265/1080p] [Main10]

 

Создавать темы 06-Июл-2016 14:39

- Терминатор: Генезис / Terminator Genisys (2015) BDRip - Производство: США / Paramount Pictures, Skydance Productions
Жанр: Фантастика, Боевик, Триллер
Режиссер: Алан Тейлор
Актеры: Арнольд Шварценеггер, Джейсон Кларк, Эмилия Кларк, Джай Кортни, Дж.К. Симмонс, Дайо Окенийи, Мэтт Смит, Кортни Б. Вэнс, Ли Бён Хон, Майкл Глэди
Описание:
Когда Джон Коннор, лидер сопротивления, посылает сержанта Кайла Риза назад в 1984 год, чтобы защитить Сару Коннор и спасти будущее, неожиданный поворот событий создает разлом во времени. Сержант Риз оказывается в новой, незнакомой версии прошлого, где он встречает неожиданных союзников, в том числе Терминатора, новых опасных врагов, и новую миссию: изменить будущее…
Возраст: 12+ (зрителям, достигшим 12 лет)
Рейтинг MPAA: PG-13 (детям до 13 лет просмотр нежелателен)
Релиз от: MZABI
Продолжительность: 02:05:43
Качество видео: BDRip
Перевод: Дублированный (iTunes)
Язык субтитров: Русский, английский
Вид субтитров: Вшитые, отключаемые
Видео: HEVC/H.265, 1920x800, ~7500 Kbps
Аудио: AC3, 6 ch, 448 Kbps, CBR

Mediainfo:

Общее
Уникальный идентификатор                 : 184779618006319834649735205355888472828 (0x8B03428BA1361A6B828055686B7672FC)
Полное имя                               : F:\Movies\Фильмы\Иностранные\Терминатор (The Terminator)\Терминатор 5. Генезис (Terminator. Genisys).mkv
Формат                                   : Matroska
Версия формата                           : Version 4 / Version 2
Размер файла                             : 6,98 Гбайт
Продолжительность                        : 2 ч. 5 м.
Общий поток                              : 7951 Кбит/сек
Название фильма                          : Терминатор: Генезис / Terminator: Genisys
Дата кодирования                         : UTC 2016-07-03 03:57:32
Программа кодирования                    : mkvmerge v9.0.1 ('Obstacles') 64bit
Библиотека кодирования                   : libebml v1.3.3 + libmatroska v1.4.4
Обложка                                  : Yes
Attachments                              : cover.png
Видео
Идентификатор                            : 1
Формат                                   : HEVC
Формат/Информация                        : High Efficiency Video Coding
Профиль формата                          : Main [email protected]@Main
Идентификатор кодека                     : V_MPEGH/ISO/HEVC
Продолжительность                        : 2 ч. 5 м.
Битрейт                                  : 7500 Кбит/сек
Ширина                                   : 1920 пикселей
Высота                                   : 800 пикселей
Соотношение сторон                       : 2,40:1
Режим частоты кадров                     : Постоянный
Частота кадров                           : 23,976 (24000/1001) кадра/сек
Цветовое пространство                    : YUV
Субдискретизация насыщенности            : 4:2:0
Битовая глубина                          : 10 бит
Бит/(Пиксели*Кадры)                      : 0.204
Размер потока                            : 6,59 Гбайт (94%)
Заголовок                                : HEVC - MZABI
Библиотека кодирования                   : x265 1.7+433-60f30d2ead26:[Windows][GCC 5.2.0][64 bit] 10bit
Настройки программы                      : wpp / ctu=64 / min-cu-size=8 / max-tu-size=32 / tu-intra-depth=1 / tu-inter-depth=1 / me=1 / subme=2 / merange=57 / no-rect / no-amp / max-merge=2 / temporal-mvp / no-early-skip / rdpenalty=0 / no-tskip / no-tskip-fast / strong-intra-smoothing / no-lossless / no-cu-lossless / no-constrained-intra / no-fast-intra / open-gop / no-temporal-layers / interlace=0 / keyint=250 / min-keyint=23 / scenecut=40 / rc-lookahead=20 / lookahead-slices=0 / bframes=4 / bframe-bias=0 / b-adapt=2 / ref=3 / limit-refs=0 / weightp / no-weightb / aq-mode=1 / qg-size=32 / aq-strength=1.00 / cbqpoffs=0 / crqpoffs=0 / rd=3 / psy-rd=0.30 / rdoq-level=0 / psy-rdoq=0.00 / signhide / deblock / sao / no-sao-non-deblock / b-pyramid / cutree / rc=2 / pass / bitrate=7500 / qcomp=0.60 / qpmin=0 / qpmax=51 / qpstep=4 / cplxblur=20.0 / qblur=0.5 / ipratio=1.40 / pbratio=1.30
Default                                  : Да
Forced                                   : Нет
Аудио
Идентификатор                            : 2
Формат                                   : AC-3
Формат/Информация                        : Audio Coding 3
Расширение режима                        : CM (complete main)
Параметр Endianness формата              : Big
Идентификатор кодека                     : A_AC3
Продолжительность                        : 2 ч. 5 м.
Вид битрейта                             : Постоянный
Битрейт                                  : 448 Кбит/сек
Каналы                                   : 6 каналов
Расположение каналов                     : Front: L C R, Side: L R, LFE
Частота                                  : 48,0 КГц
Частота кадров                           : 31,250 кадров/сек (1536 spf)
Метод сжатия                             : С потерями
Размер потока                            : 403 Мбайт (6%)
Заголовок                                : Перевод: Профессиональный (полное дублирование) iTunes
Язык                                     : Russian
Default                                  : Да
Forced                                   : Нет
Текст #1
Идентификатор                            : 3
Формат                                   : UTF-8
Идентификатор кодека                     : S_TEXT/UTF8
Идентификатор кодека/Информация          : UTF-8 Plain Text
Продолжительность                        : 1 ч. 40 м.
Битрейт                                  : 0 бит/сек
Count of elements                        : 16
Размер потока                            : 604 байт (0%)
Заголовок                                : Rus forsed
Язык                                     : Russian
Default                                  : Да
Forced                                   : Да
Текст #2
Идентификатор                            : 4
Формат                                   : UTF-8
Идентификатор кодека                     : S_TEXT/UTF8
Идентификатор кодека/Информация          : UTF-8 Plain Text
Продолжительность                        : 1 ч. 56 м.
Битрейт                                  : 79 бит/сек
Count of elements                        : 1289
Размер потока                            : 68,2 Кбайт (0%)
Заголовок                                : Rus
Язык                                     : Russian
Default                                  : Нет
Forced                                   : Нет
Текст #3
Идентификатор                            : 5
Формат                                   : UTF-8
Идентификатор кодека                     : S_TEXT/UTF8
Идентификатор кодека/Информация          : UTF-8 Plain Text
Продолжительность                        : 1 ч. 56 м.
Битрейт                                  : 48 бит/сек
Count of elements                        : 1340
Размер потока                            : 41,3 Кбайт (0%)
Заголовок                                : Eng
Язык                                     : English
Default                                  : Нет
Forced                                   : Нет
Меню
00:00:00.000                             : en:00:00:00.000
00:07:40.334                             : en:00:07:40.334
00:14:20.734                             : en:00:14:20.734
00:20:31.563                             : en:00:20:31.563
00:27:48.416                             : en:00:27:48.416
00:34:54.801                             : en:00:34:54.801
00:41:02.626                             : en:00:41:02.626
00:46:28.786                             : en:00:46:28.786
00:53:05.515                             : en:00:53:05.515
01:01:00.239                             : en:01:01:00.239
01:08:22.556                             : en:01:08:22.556
01:14:43.812                             : en:01:14:43.812
01:21:31.261                             : en:01:21:31.261
01:31:01.706                             : en:01:31:01.706
01:38:42.750                             : en:01:38:42.750
01:45:41.084                             : en:01:45:41.084
01:52:48.970                             : en:01:52:48.970
01:58:00.114                             : en:01:58:00.114
XMP
Xmp.video.FileName           : F:\Movies\Фильмы\Иностранные\Терминатор (The Terminator)\Терминатор 5. Генезис (Terminator. Genisys).mkv
Xmp.video.FileSize           : -9.53674e-007
Xmp.video.MimeType           : video/matroska
Xmp.video.EBMLVersion        : 1
Xmp.video.EBMLReadVersion    : 1
Xmp.video.DocType            : matroska
Xmp.video.DocTypeVersion     : 4
Xmp.video.DocTypeReadVersion : 2
Xmp.video.TimecodeScale      : 0.001
Xmp.video.MuxingApp          : libebml v1.3.3 + libmatroska v1.4.4
Xmp.video.WritingApp         : mkvmerge v9.0.1 ('Obstacles') 64bit
Xmp.video.Duration           : 7542994
Xmp.video.DateUTC            : 489211052
Xmp.video.Title              : Терминатор: Генезис / Terminator: Genisys
Xmp.video.TotalStream        : 22
Xmp.video.TrackLacing        : No
Xmp.video.Codec              : V_MPEGH/ISO/HEVC
Xmp.video.FrameRate          : 23.976
Xmp.video.TrackLang          : und
Xmp.video.TrackName          : Eng
Xmp.video.Width              : 1920
Xmp.video.Height             : 800
Xmp.audio.Compressor         : A_AC3
Xmp.audio.DefaultDuration    : 32000
Xmp.audio.TrackLang          : rus
Xmp.audio.SampleRate         : 48000
Xmp.video.SubTTrackForced    : Yes
Xmp.video.SubTTrackLacing    : No
Xmp.video.SubTCodec          : S_TEXT/UTF8
Xmp.video.SubTLang           : rus
Xmp.video.SubTDefaultOn      : No
Xmp.video.AttachFileName     : cover.png
Xmp.video.AttachFileMIME     : image/png
Xmp.video.AttachFileUID      : -4387936600039088762
Xmp.video.AspectRatio        : 2.4

Дополнительная информация:

Рип в формате HEVC Hi10p
Скриншоты:
Яндекс.Метрика
Рейтинг@Mail.ru