Питбуль. Новые порядки / Pitbull. Nowe porzadki (2016) BDRip [H.264/720p] [VO]

 

Создавать темы 06-Июл-2016 14:39

- Питбуль. Новые порядки / Pitbull. Nowe porzadki (2016) BDRip - Производство: Польша / Ent One, Vue Movie Distribution
Жанр: Боевик, Триллер, Драма, Криминал
Режиссер: Патрик Вега
Актеры: Богуслав Линда, Майя Осташевская, Анджей Грабовский, Кшиштоф Чечот, Агнешка Дыгант, Юлия Погребиньская, Михал Куля, Павел Круликовский, Беата Кавка
Описание:
Два отделения полиции в Варшаве вынуждены работать вместе против самой мощной преступной организации в Польше.-Возраст: этот продукт не был классифицирован
Рейтинг MPAA: этот продукт не был классифицирован-Продолжительность: 02:12:00
Качество видео: BDRip (SceneRip) [thumb]http://multi-up.com/1107613[/thumb]
Перевод: Одноголосый закадровый, любительский
Автор перевода: Хихикающий доктор (Ненормативная лексика)
Видео: AVC/H.264, 1280x544 (2.35:1), 24.000 fps, 5603 Kbps (0.335 bit/pixel)
Аудио 01: AC-3, 48.0 KHz, 2 ch, 192 Kbps, CBR | Русский VO
Аудио 02: DTS, 48.0 KHz, 6 ch, 1510 Kbps, CBR | Польский

Mediainfo:

General
Unique ID                      : 238136582656267154325142472488956485401 (0xB3277002913FC55D87681DBBA7B85F19)
Complete name                  : C:\Фильмы\Pitbul.Novyje.porjadki.2016.BDRip.720p.mkv
Format                         : Matroska
Format version                 : Version 2
File size                      : 6.74 GiB
Duration                       : 2h 11mn
Overall bit rate               : 7 307 Kbps
Encoded date                   : UTC 2016-06-27 19:53:35
Writing application            : mkvmerge v7.8.0 ('River Man') 32bit built on Apr  3 2015 12:11:22
Writing library                : libebml v1.3.1 + libmatroska v1.4.2
Video
ID                             : 1
Format                         : AVC
Format/Info                    : Advanced Video Codec
Format profile                 : [url=mailto:[email protected]][email protected][/url]
Format settings, CABAC         : Yes
Format settings, ReFrames      : 5 frames
Codec ID                       : V_MPEG4/ISO/AVC
Duration                       : 2h 12mn
Bit rate                       : 5 603 Kbps
Width                          : 1 280 pixels
Height                         : 544 pixels
Display aspect ratio           : 2.35:1
Frame rate mode                : Constant
Frame rate                     : 24.000 fps
Color space                    : YUV
Chroma subsampling             : 4:2:0
Bit depth                      : 8 bits
Scan type                      : Progressive
Bits/(Pixel*Frame)             : 0.335
Stream size                    : 5.03 GiB (75%)
Writing library                : x264 core 148 r2692 64f4e24
Encoding settings              : cabac=1 / ref=5 / deblock=1:0:0 / analyse=0x3:0x133 / me=umh / subme=7 / psy=1 / psy_rd=1.00:0.00 / mixed_ref=1 / me_range=16 / chroma_me=1 / trellis=1 / 8x8dct=1 / cqm=0 / deadzone=21,11 / fast_pskip=0 / chroma_qp_offset=-2 / threads=17 / lookahead_threads=2 / sliced_threads=0 / nr=0 / decimate=1 / interlaced=0 / bluray_compat=0 / constrained_intra=0 / bframes=3 / b_pyramid=2 / b_adapt=1 / b_bias=0 / direct=1 / weightb=1 / open_gop=0 / weightp=2 / keyint=250 / keyint_min=23 / scenecut=40 / intra_refresh=0 / rc_lookahead=40 / rc=2pass / mbtree=1 / bitrate=5603 / ratetol=1.0 / qcomp=0.60 / qpmin=0 / qpmax=69 / qpstep=4 / cplxblur=20.0 / qblur=0.5 / ip_ratio=1.40 / aq=1:1.00
Language                       : Polish
Default                        : Yes
Forced                         : No
Audio #1
ID                             : 2
Format                         : AC-3
Format/Info                    : Audio Coding 3
Mode extension                 : CM (complete main)
Format settings, Endianness    : Big
Codec ID                       : A_AC3
Duration                       : 2h 11mn
Bit rate mode                  : Constant
Bit rate                       : 192 Kbps
Channel(s)                     : 2 channels
Channel positions              : Front: L R
Sampling rate                  : 48.0 KHz
Compression mode               : Lossy
Stream size                    : 181 MiB (3%)
Language                       : Russian
Default                        : Yes
Forced                         : No
Audio #2
ID                             : 3
Format                         : DTS
Format/Info                    : Digital Theater Systems
Mode                           : 16
Format settings, Endianness    : Big
Codec ID                       : A_DTS
Duration                       : 2h 11mn
Bit rate mode                  : Constant
Bit rate                       : 1 509 Kbps
Channel(s)                     : 6 channels
Channel positions              : Front: L C R, Side: L R, LFE
Sampling rate                  : 48.0 KHz
Bit depth                      : 24 bits
Compression mode               : Lossy
Stream size                    : 1.39 GiB (21%)
Language                       : Polish
Default                        : No
Forced                         : No
Menu
00:00:00.000                   : en:00:00:00.000
00:08:21.042                   : en:00:08:21.042
00:16:38.208                   : en:00:16:38.208
00:26:02.208                   : en:00:26:02.208
00:33:09.583                   : en:00:33:09.583
00:41:43.708                   : en:00:41:43.708
00:48:20.875                   : en:00:48:20.875
00:56:11.542                   : en:00:56:11.542
01:05:55.375                   : en:01:05:55.375
01:14:57.625                   : en:01:14:57.625
01:23:34.833                   : en:01:23:34.833
01:33:27.792                   : en:01:33:27.792
01:42:37.083                   : en:01:42:37.083
01:47:42.750                   : en:01:47:42.750
01:56:22.333                   : en:01:56:22.333
02:07:10.208                   : en:02:07:10.208
Скриншоты:
Яндекс.Метрика
Рейтинг@Mail.ru