Благословенная Мария / Maria Full of Grace (2004) HDTV [H.264/1080]

 

Создавать темы 06-Июл-2016 14:39

- Благословенная Мария / Maria Full of Grace (2004) HDTV [H.264/1080i] - Производство: Колумбия, США, Эквадор / HBO Films, Fine Line Features, Journeyman Pictures
Жанр: Драма, Криминал
Режиссер: Джошуа Марстон
Актеры: Каталина Сандино Морено, Вирхина Ариса, Йени Паола Вега, Родриго Санчес Бороркес, Чарльз Альберт Патиньо, Уилсон Герерро, Джоанна Андреа Мора, Фабрисио Суарес, Матео Суарес, Эванхелина Моралес-Описание:
Мария вместе с подружкой Бланкой работает на цветочной плантации, но её увольняют, и нужен новый источник дохода. Ей предлагают стать «живым контейнером» для перевозки наркотиков, а вскоре и Бланка попадает в руки драг-дилеров. Подруги садятся на самолёт, летящий в Америку. В желудке Марии 62 пакетика героина…-Рейтинг MPAA: R (лицам до 17 лет обязательно присутствие взрослого)-Продолжительность: 01:34:04
Качество видео: HDTV 1080i
Перевод: Профессиональный (многоголосый, закадровый)
Субтитры: Отсутствуют
Видео: AVC/H.264, 1920x1080, ~6912 Kbps
Аудио: AC3, 2 ch, 192 Kbps, CBR | Русский (MVO, Amedia)
Аудио: AC3, 2 ch, 192 Kbps, CBR | Русский (MVO, R5)
Аудио: AC3, 2 ch, 192 Kbps, CBR | Испанский

Mediainfo:

Формат : Matroska
Версия формата : Version 4 / Version 2
Размер файла : 4,92 Гбайт
Продолжительность : 1 ч. 34 м.
Общий поток : 7491 Кбит/сек
Дата кодирования : UTC 2016-04-25 22:42:56
Программа кодирования : mkvmerge v9.1.0 ('Little Earthquakes') 64bit
Библиотека кодирования : libebml v1.3.3 + libmatroska v1.4.4
Видео
Идентификатор : 1
Формат : AVC
Формат/Информация : Advanced Video Codec
Профиль формата : [email protected]
Параметр CABAC формата : Да
Параметр ReFrames формата : 4 кадра
Идентификатор кодека : V_MPEG4/ISO/AVC
Продолжительность : 1 ч. 34 м.
Битрейт : 6912 Кбит/сек
Ширина : 1920 пикселей
Высота : 1080 пикселей
Соотношение сторон : 16:9
Режим частоты кадров : Постоянный
Частота кадров : 25,000 кадров/сек
Стандарт вещания : Component
Цветовое пространство : YUV
Субдискретизация насыщенности : 4:2:0
Битовая глубина : 8 бит
Тип развёртки : MBAFF
Метод сохранения типа развёртки : Чередующиеся поля
Порядок развёртки : Верхнее поле первое
Бит/(Пиксели*Кадры) : 0.133
Размер потока : 4,54 Гбайт (92%)
Default : Нет
Forced : Нет
Цветовой диапазон : Limited
Основные цвета : BT.709
Характеристики трансфера : BT.709
Коэффициенты матрицы : BT.709
Аудио #1
Идентификатор : 2
Формат : AC-3
Формат/Информация : Audio Coding 3
Расширение режима : CM (complete main)
Параметр Endianness формата : Big
Идентификатор кодека : A_AC3
Продолжительность : 1 ч. 34 м.
Вид битрейта : Постоянный
Битрейт : 192 Кбит/сек
Каналы : 2 канала
Расположение каналов : Front: L R
Частота : 48,0 КГц
Частота кадров : 31,250 кадров/сек (1536 spf)
Метод сжатия : С потерями
Размер потока : 129 Мбайт (3%)
Заголовок : Amedia
Язык : Russian
Default : Да
Forced : Нет
Аудио #2
Идентификатор : 3
Формат : AC-3
Формат/Информация : Audio Coding 3
Расширение режима : CM (complete main)
Параметр Endianness формата : Big
Идентификатор кодека : A_AC3
Продолжительность : 1 ч. 34 м.
Вид битрейта : Постоянный
Битрейт : 192 Кбит/сек
Каналы : 2 канала
Расположение каналов : Front: L R
Частота : 48,0 КГц
Частота кадров : 31,250 кадров/сек (1536 spf)
Метод сжатия : С потерями
Размер потока : 129 Мбайт (3%)
Заголовок : R5
Язык : Russian
Default : Нет
Forced : Нет
Скриншоты:
Яндекс.Метрика
Рейтинг@Mail.ru