Ловец снов / Dreamcatcher (2003) WEB-DLRip [H.264]

 

Создавать темы 06-Июл-2016 11:49

-Ловец снов / Dreamcatcher (2003) WEB-DLRip [H.264]- Русское название: Ловец снов
Оригинальное название: Dreamcatcher
Год выпуска: 2003
Жанр: Фантастика, триллер, ужасы, драма
Описание фильма:
Джонси, Генри, Пит и Бивер. Двадцать лет назад они были просто мальчишками, проживающими в одном небольшом городке штата Мэн, — детьми, нашедшими в себе достаточно мужества, чтобы героически ответить на детскую жестокость. Награда за спасение странноватого мальчика по имени Даддитс совершенно неожиданно пришла к ним в виде сверхъестественных сил, связавших всех пятерых крепчайшими узами братства.
Но когда на ежегодной охоте друзья собираются вместе в лесной хижине, то вместо ожидаемой теплой веселой атмосферы над ними начинает сгущаться абсолютное зло, приносящее гибель. Сначала к ним попадает незнакомец — затерявшийся в лесу охотник, которому и невдомек, что его организм поражен смертельной заразой. А вслед за ним возникает неистовствующий снежный буран, в эпицентре которого движется нечто еще более зловещее… Впереди — крупнейшее противостояние ужасу, не имеющему аналогов.
Режиссер: Лоуренс Кэздан
Актеры: Морган Фриман, Томас Джейн, Джейсон Ли, Дамиан Льюис, Тимоти Олифант, Том Сайзмор, Донни Уолберг, Майки Хоулкамп, Рис Томпсон, Джакомо Бессато
Продолжительность: 02:13:43
Перевод: Дублированный, 3х многоголосый, двухголосый, 3х авторский одноголосый
Релиз группа: "Encoded by Bugman"
Язык субтитров: Русский, английский
Вид субтитров: Вшитые (отключаемые)
Дата мировой премьеры: 6 марта 2003
Дата премьеры (РФ): 5 июня 2003, «Каро-Премьер»
Выход на DVD: 14 апреля 2011, «CP-Digital»
Выход на Blu-Ray: 18 сентября 2014, «CP Дистрибуция»
Видеокодек: MPEG-4 AVC
Битрейт видео: ~2170 Kbps
Размер кадра: 984x552
Качество видео: WEB-DLRip (AVC)
Аудио:
Аудио #1: AC3, 2.0 ch 192 Кбит/с - русский (Dub iTunes Russia)
Аудио #2: AC3, 2.0 ch 192 Кбит/с - русский (MVO PTP)
Аудио #3: AC3, 2.0 ch 192 Кбит/с - русский (DVO Universal Channel)
Аудио #4: AC3, 2.0 ch 192 Кбит/с - русский (AVO Ю.Живов)
Аудио #5: AC3, 2.0 ch 192 Кбит/с - русский (AVO А.Гаврилов)
Аудио #6: AC3, 2.0 ch 192 Кбит/с - русский (AVO А. Карповский)
Аудио #7: AC3, 2.0 ch 192 Кбит/с - украинский (MVO 1+1)
Аудио #8: AC3, 2.0 ch 192 Кбит/с - украинский (MVO ICTV)
Аудио #9: AC3, 2.0 ch 192 Кбит/с - английский (Оригинал)

x264 2-nd pass

--[Information] [09.06.2014 6:17:37] aspect ratio: 41:23 (1.783)
--[Information] [09.06.2014 6:17:38] Process started
--[Information] [09.06.2014 6:17:38] Standard output stream
--[Information] [09.06.2014 6:17:38] Standard error stream
---[Information] [09.06.2014 6:17:55] avs [info]: 984x552p 1:1 @ 24000/1001 fps (cfr)
---[Information] [09.06.2014 6:17:55] x264 [info]: using SAR=1/1
---[Information] [09.06.2014 6:17:55] x264 [info]: using cpu capabilities: MMX2 SSE2Fast SSSE3 SSE4.1 Cache64
---[Information] [09.06.2014 6:17:55] x264 [info]: profile High, level 4.1
---[Information] [09.06.2014 22:03:53] x264 [info]: frame I:1404 Avg QP:16.56 size: 56868
---[Information] [09.06.2014 22:03:53] x264 [info]: frame P:53782 Avg QP:19.44 size: 19425
---[Information] [09.06.2014 22:03:53] x264 [info]: frame B:137192 Avg QP:21.67 size: 7665
---[Information] [09.06.2014 22:03:53] x264 [info]: consecutive B-frames: 3.1% 7.8% 6.4% 68.4% 5.9% 6.2% 1.0% 0.7% 0.2% 0.1% 0.2%
---[Information] [09.06.2014 22:03:53] x264 [info]: mb I I16..4: 9.3% 74.6% 16.0%
---[Information] [09.06.2014 22:03:53] x264 [info]: mb P I16..4: 5.1% 17.4% 1.7% P16..4: 46.2% 14.3% 10.5% 0.3% 0.1% skip: 4.5%
---[Information] [09.06.2014 22:03:53] x264 [info]: mb B I16..4: 0.5% 2.7% 0.5% B16..8: 37.9% 9.1% 2.2% direct: 7.5% skip:39.6% L0:40.9% L1:48.0% BI:11.1%
---[Information] [09.06.2014 22:03:53] x264 [info]: 8x8 transform intra:72.7% inter:65.3%
---[Information] [09.06.2014 22:03:53] x264 [info]: direct mvs spatial:97.9% temporal:2.1%
---[Information] [09.06.2014 22:03:53] x264 [info]: coded y,uvDC,uvAC intra: 65.8% 62.8% 25.8% inter: 25.6% 22.5% 4.4%
---[Information] [09.06.2014 22:03:53] x264 [info]: i16 v,h,dc,p: 32% 24% 12% 33%
---[Information] [09.06.2014 22:03:53] x264 [info]: i8 v,h,dc,ddl,ddr,vr,hd,vl,hu: 12% 11% 11% 8% 12% 12% 12% 10% 13%
---[Information] [09.06.2014 22:03:53] x264 [info]: i4 v,h,dc,ddl,ddr,vr,hd,vl,hu: 11% 10% 4% 8% 14% 13% 14% 11% 14%
---[Information] [09.06.2014 22:03:53] x264 [info]: i8c dc,h,v,p: 45% 27% 18% 10%
---[Information] [09.06.2014 22:03:53] x264 [info]: Weighted P-Frames: Y:5.0% UV:2.4%
---[Information] [09.06.2014 22:03:53] x264 [info]: ref P L0: 55.9% 10.3% 15.7% 5.6% 4.2% 3.3% 2.8% 2.0% 0.3% 0.0%
---[Information] [09.06.2014 22:03:53] x264 [info]: ref B L0: 79.5% 9.7% 4.7% 2.5% 2.0% 1.2% 0.5%
---[Information] [09.06.2014 22:03:53] x264 [info]: ref B L1: 95.0% 5.0%
---[Information] [09.06.2014 22:03:53] x264 [info]: kb/s:2169.69
---[Information] [09.06.2014 22:03:53] encoded 192378 frames, 3.39 fps, 2169.69 kb/s
--[Information] [09.06.2014 22:03:56] Final statistics

MI

General
Complete name : Ловец снов - Dreamcatcher (2003) WEB-DLRip.mkv
Format : Matroska
Format version : Version 2
File size : 3.64 GiB
Duration : 2h 13mn
Overall bit rate : 3 902 Kbps
Movie name : Ловец снов / Dreamcatcher (2003) by Bugman
Encoded date : UTC 2014-06-10 14:29:52
Writing application : mkvmerge v4.9.1 ('Ich will') built on Sep 21 2011 17:48:11
Writing library : libebml v1.2.1 + libmatroska v1.2.0
Attachment : Yes / Yes
Video
ID : 1
Format : AVC
Format/Info : Advanced Video Codec
Format profile : [url=mailto:[email protected]][email protected][/url]
Format settings, CABAC : Yes
Format settings, ReFrames : 8 frames
Codec ID : V_MPEG4/ISO/AVC
Duration : 2h 13mn
Bit rate : 2 170 Kbps
Width : 984 pixels
Height : 552 pixels
Display aspect ratio : 16:9
Frame rate : 23.976 fps
Color space : YUV
Chroma subsampling : 4:2:0
Bit depth : 8 bits
Scan type : Progressive
Bits/(Pixel*Frame) : 0.167
Stream size : 1.96 GiB (54%)
Title : x264 984x552; 41:23 (1.783); 23.976 fps; 2170 Kbps; 0.167 bpp
Writing library : x264 core 138 r2358 9e941d1
Encoding settings : cabac=1 / ref=8 / deblock=1:-1:-1 / analyse=0x3:0x133 / me=umh / subme=9 / psy=1 / psy_rd=1.08:0.06 / mixed_ref=1 / me_range=48 / chroma_me=1 / trellis=2 / 8x8dct=1 / cqm=0 / deadzone=21,11 / fast_pskip=0 / chroma_qp_offset=-3 / threads=3 / lookahead_threads=1 / sliced_threads=0 / nr=0 / decimate=0 / interlaced=0 / bluray_compat=0 / constrained_intra=0 / bframes=10 / b_pyramid=2 / b_adapt=2 / b_bias=0 / direct=3 / weightb=1 / open_gop=0 / weightp=2 / keyint=240 / keyint_min=23 / scenecut=40 / intra_refresh=0 / rc_lookahead=60 / rc=2pass / mbtree=1 / bitrate=2170 / ratetol=1.0 / qcomp=0.70 / qpmin=0 / qpmax=69 / qpstep=4 / cplxblur=20.0 / qblur=0.5 / vbv_maxrate=50000 / vbv_bufsize=62500 / nal_hrd=none / ip_ratio=1.40 / aq=1:0.80
Language : English
Audio #1
ID : 2
Format : AC-3
Format/Info : Audio Coding 3
Mode extension : CM (complete main)
Codec ID : A_AC3
Duration : 2h 13mn
Bit rate mode : Constant
Bit rate : 192 Kbps
Channel(s) : 2 channels
Channel positions : Front: L R
Sampling rate : 48.0 KHz
Bit depth : 16 bits
Compression mode : Lossy
Stream size : 184 MiB (5%)
Title : Dub iTunes Russia; AC3; 48.0 KHz; 192 Kbps; 2 channels; Front: L R
Language : Russian
Audio #2
ID : 3
Format : AC-3
Format/Info : Audio Coding 3
Mode extension : CM (complete main)
Codec ID : A_AC3
Duration : 2h 13mn
Bit rate mode : Constant
Bit rate : 192 Kbps
Channel(s) : 2 channels
Channel positions : Front: L R
Sampling rate : 48.0 KHz
Bit depth : 16 bits
Compression mode : Lossy
Stream size : 184 MiB (5%)
Title : MVO PTP; AC3; 48.0 KHz; 192 Kbps; 2 channels; Front: L R
Language : Russian
Audio #3
ID : 4
Format : AC-3
Format/Info : Audio Coding 3
Mode extension : CM (complete main)
Codec ID : A_AC3
Duration : 2h 13mn
Bit rate mode : Constant
Bit rate : 192 Kbps
Channel(s) : 2 channels
Channel positions : Front: L R
Sampling rate : 48.0 KHz
Bit depth : 16 bits
Compression mode : Lossy
Stream size : 184 MiB (5%)
Title : DVO Universal Channel; AC3; 48.0 KHz; 192 Kbps; 2 channels; Front: L R
Language : Russian
Audio #4
ID : 5
Format : AC-3
Format/Info : Audio Coding 3
Mode extension : CM (complete main)
Codec ID : A_AC3
Duration : 2h 13mn
Bit rate mode : Constant
Bit rate : 192 Kbps
Channel(s) : 2 channels
Channel positions : Front: L R
Sampling rate : 48.0 KHz
Bit depth : 16 bits
Compression mode : Lossy
Stream size : 184 MiB (5%)
Title : AVO Ю.Живов; AC3; 48.0 KHz; 192 Kbps; 2 channels; Front: L R
Language : Russian
Audio #5
ID : 6
Format : AC-3
Format/Info : Audio Coding 3
Mode extension : CM (complete main)
Codec ID : A_AC3
Duration : 2h 13mn
Bit rate mode : Constant
Bit rate : 192 Kbps
Channel(s) : 2 channels
Channel positions : Front: L R
Sampling rate : 48.0 KHz
Bit depth : 16 bits
Compression mode : Lossy
Stream size : 184 MiB (5%)
Title : AVO А.Гаврилов; AC3; 48.0 KHz; 192 Kbps; 2 channels; Front: L R
Language : Russian
Audio #6
ID : 7
Format : AC-3
Format/Info : Audio Coding 3
Mode extension : CM (complete main)
Codec ID : A_AC3
Duration : 2h 13mn
Bit rate mode : Constant
Bit rate : 192 Kbps
Channel(s) : 2 channels
Channel positions : Front: L R
Sampling rate : 48.0 KHz
Bit depth : 16 bits
Compression mode : Lossy
Stream size : 184 MiB (5%)
Title : AVO А. Карповский; AC3; 48.0 KHz; 192 Kbps; 2 channels; Front: L R
Language : Russian
Audio #7
ID : 8
Format : AC-3
Format/Info : Audio Coding 3
Mode extension : CM (complete main)
Codec ID : A_AC3
Duration : 2h 13mn
Bit rate mode : Constant
Bit rate : 192 Kbps
Channel(s) : 2 channels
Channel positions : Front: L R
Sampling rate : 48.0 KHz
Bit depth : 16 bits
Compression mode : Lossy
Stream size : 184 MiB (5%)
Title : MVO 1+1; AC3; 48.0 KHz; 192 Kbps; 2 channels; Front: L R
Language : Ukrainian
Audio #8
ID : 9
Format : AC-3
Format/Info : Audio Coding 3
Mode extension : CM (complete main)
Codec ID : A_AC3
Duration : 2h 13mn
Bit rate mode : Constant
Bit rate : 192 Kbps
Channel(s) : 2 channels
Channel positions : Front: L R
Sampling rate : 48.0 KHz
Bit depth : 16 bits
Compression mode : Lossy
Stream size : 184 MiB (5%)
Title : MVO ICTV; AC3; 48.0 KHz; 192 Kbps; 2 channels; Front: L R
Language : Ukrainian
Audio #9
ID : 10
Format : AC-3
Format/Info : Audio Coding 3
Mode extension : CM (complete main)
Codec ID : A_AC3
Duration : 2h 13mn
Bit rate mode : Constant
Bit rate : 192 Kbps
Channel(s) : 2 channels
Channel positions : Front: L R
Sampling rate : 48.0 KHz
Bit depth : 16 bits
Compression mode : Lossy
Stream size : 184 MiB (5%)
Title : Eng; AC3; 48.0 KHz; 192 Kbps; 2 channels; Front: L R
Language : English
Text #1
ID : 11
Format : UTF-8
Codec ID : S_TEXT/UTF8
Codec ID/Info : UTF-8 Plain Text
Title : Rus Full
Language : Russian
Text #2
ID : 12
Format : UTF-8
Codec ID : S_TEXT/UTF8
Codec ID/Info : UTF-8 Plain Text
Title : Eng Full
Language : English
Menu
00:00:00.000 : en:1. Opening Credits
00:02:43.000 : en:2. "How Could You Know This?"
00:06:15.000 : en:3. "Just Luck Is All"
00:10:33.000 : en:4. Jonesy's Accident
00:13:29.000 : en:5. "I Saw Duddits"
00:16:54.000 : en:6. Memory Warehouse
00:20:30.000 : en:7. Rescuing Duddits
00:26:14.000 : en:8. Rick McCarthy
00:30:22.000 : en:9. "The Blue Ribbon Baby"
00:34:33.000 : en:10. The Scout Accident
00:36:28.000 : en:11. Animal Exodus
00:40:28.000 : en:12. "Sit Tight, Buddy"
00:46:02.000 : en:13. The Weasel Attacks
00:49:38.000 : en:14. "What Do You Want?"
00:52:29.000 : en:15. Curtis and Owen
00:56:03.000 : en:16. The Curtis Line
00:57:23.000 : en:17. Pete and the Snowbank
00:59:44.000 : en:18. "I'll Never Drink Again"
01:04:08.000 : en:19. "You're Not Jonesy"
01:05:39.000 : en:20. The Line
01:08:04.000 : en:21. The Cabin Transformed
01:10:56.000 : en:22. Duddits' Gift
01:16:54.000 : en:23. Destroying the Ship
01:21:52.000 : en:24. "All Right... I'll Bite"
01:26:26.000 : en:25. Race Through the Warehouse
01:30:04.000 : en:26. Mind Probe
01:31:27.000 : en:27. "Except For the Dreams"
01:35:01.000 : en:28. "You've Got Two Problems"
01:37:23.000 : en:29. Jonesy Calling
01:40:51.000 : en:30. "Go Save the World"
01:44:24.000 : en:31. Making Himself at Home
01:46:58.000 : en:32. "Mr. Gray Wants Water"
01:50:00.000 : en:33. Quabbin Reservoir
01:53:27.000 : en:34. "So Long, Doctor"
01:56:30.000 : en:35. "Don't You Know Me, H?"
01:59:48.000 : en:36. "I Duddits!"
02:03:51.000 : en:37. End Credits
02:08:05.000 : en:38. Meeting Josie

Рецензия, отзыв о фильме

Ketzalkoatl
вечный защитник
Смотрел этот фильм очень-очень давно и мне фильм пришелся по душе. Объясню все по порядку. Если рассматривать фильм как самостоятельный проект, не привязанный к творчеству Стивена Кинга, а, следовательно, и к выходящим отсюда требованиям к фильму — то все замечательно. Все на уровне. Все захватывающе, интересно. Но стоит помянуть, что фильм по роману… все каноны ломаются и зритель уже предвзято оценивает картину. Когда люди говорят о том, что экранизации романов Стивена Кинга выходят, мягко говоря, убогие, они забывают о самом главном — многие романы Кинга вообще невозможно экранизировать.
Роман Стивена Кинга это настоящее испытание для создателей фильма. Вот многие говорят: сюжет переврали, характеры персонажей загубили, всю подноготную сюжета слили на дно, ну что тут сказать — голливудский подход. Но вы забываете, это Кинг, тут без трансформаций никак. Я смотрел комментарии режиссера, он очень подробно рассказал, почему изменил некоторые моменты книги, как интерпретировал сюжет, с какой целью, очень советую ознакомиться. Отдельной заслуги стоит «склад памяти», мне кажется, режиссер просто замечательно перенес на экран сознание Джоунси, именно так, как это представляется в романе. Играли все убедительно, мистер Грей получился на ура, срань-хорьки тоже, в зиму я поверил и в полковника Курца. Мне кажется, лучше и адекватнее роман было просто не передать.
Не спорю, книга требует глубокого погружения в мир Генри, Джоунси, Бивера, Пита и Даддитса, но на экраны это не выведешь, по мне так взяли основное, немного видоизменили, упростили, ну а по-другому как? Воссоздай все как есть, зритель вопросит: что за бред? Это вообще о чем?
Поверьте, многие мои знакомые после прочтения книги задались вопросом: Почему «Ловец Снов»? И простым объяснением, мол, индейский амулет и тра-ля-ля тут не отделаешься, а в фильме это проще истолковывать.
Читал последние новости, хотят экранизировать «Темную Башню», интересно, что из этого выйдет, хотя с не экранизированными «Хранителями» спартанец как бы справился.
Исключение — это Фрэнк Дарабонт, он просто гений, нет, он просто хороший режиссер, который с умом подходит к реализации, на первый взгляд, неисполнимых проектов, который, так сказать, зрит в корень. В результате мы получили три замечательных фильма, достойных называться шедеврами кино снятого по роману… — «Побег из Шоушенка», «Зеленая Миля» и недавняя «Мгла».
Вот вам Стивен Кинг в кино, эти работы просто потрясающие. Значит все-таки экранизировать его реально. Но не все Фрэнки Дарабонты, нужно уметь относиться с пониманием к тем, у кого получается чуть хуже.
Я за фильм.
9 из 10
Скриншоты:
Яндекс.Метрика
Рейтинг@Mail.ru