Голос улиц / Straight Outta Compton (2015) BDRip [H.264]

 

Создавать темы 06-Июл-2016 11:49

-Голос улиц / Straight Outta Compton (2015) BDRip [H.264]«Самая опасная группа в мире»- Производство: США / Circle of Confusion, Cube Vision, Legendary Pictures
Жанр: драма, биография, музыка
Режиссер: Ф. Гэри Грей
Продюсер: Мэтт Альварес, Скотт Бернштейн, Др. Дре
Актеры: О’Ши Джексон мл., Кори Хоукинс, Джейсон Митчелл, Нил Браун мл., Элдис Ходж, Марлон Йэтс мл., Р. Маркус Тейлор, Карра Паттерсон, Александра Шипп, Пол Джаматти
Описание:
История группы N.W.A. из Комптона, штат Калифорния, которая в середине 1980-х произвела революцию в хип-хоп музыке.
Возраст: 16+ (зрителям, достигшим 16 лет)
Рейтинг MPAA: R (лицам до 17 лет обязательно присутствие взрослого)
Дата мировой премьеры: 11 августа 2015
Дата российской премьеры: 12 ноября 2015, «UPI»

Продолжительность: 02:26:38
Качество: BDRip (H.264)
Перевод: Дублированный (Лицензия BD CEE)
Вид субтитров: Вшитые, отключаемые
Язык субтитров: Русский, Английский
Видео: AVC/H.264, 1152x480, (2.40:1), 1945 Kbps, 23.976 fps
Аудио: AC3, 6 ch, 448 kbps - Русский
Аудио: AC3, 6 ch, 448 kbps - Английский

MediaInfo:

Общее
Уникальный идентификатор : 235215622491362658977427728273425942983 (0xB0F4E18E172F13E88525C7E563D5C9C7)
Полное имя : M:Rips2Straight Outta ComptonStraight.Outta.Compton.2015.BDRip-AVC.Dub.2.91Gb.stalkerok.new-team.mkv
Формат : Matroska
Версия формата : Version 4 / Version 2
Размер файла : 2,91 Гбайт
Продолжительность : 2 ч. 26 м.
Общий поток : 2843 Кбит/сек
Название фильма : Straight Outta Compton (2015) (New-Team) (Rip by Stalker oK)
Дата кодирования : UTC 2016-01-21 19:40:49
Программа кодирования : mkvmerge v8.6.1 ('Flying') 64bit
Библиотека кодирования : libebml v1.3.3 + libmatroska v1.4.4
Видео
Идентификатор : 1
Формат : AVC
Формат/Информация : Advanced Video Codec
Профиль формата : [url=mailto:[email protected]][email protected][/url]
Параметр CABAC формата : Да
Параметр ReFrames формата : 14 кадров
Идентификатор кодека : V_MPEG4/ISO/AVC
Продолжительность : 2 ч. 26 м.
Битрейт : 1945 Кбит/сек
Ширина : 1152 пикселя
Высота : 480 пикселей
Соотношение сторон : 2,40:1
Режим частоты кадров : Постоянный
Частота кадров : 23,976 (24000/1001) кадра/сек
Цветовое пространство : YUV
Субдискретизация насыщенности : 4:2:0
Битовая глубина : 8 бит
Тип развёртки : Прогрессивная
Бит/(Пиксели*Кадры) : 0.147
Размер потока : 1,99 Гбайт (68%)
Заголовок : Straight Outta Compton (2015) (New-Team) (Rip by Stalker oK)
Библиотека кодирования : x264 core 148 r2638kMod 7599210
Настройки программы : cabac=1 / ref=14 / deblock=1:-3:-3 / analyse=0x3:0x133 / me=umh / subme=11 / psy=1 / fade_compensate=0.00 / psy_rd=1.00:0.10 / mixed_ref=1 / me_range=48 / chroma_me=1 / trellis=2 / 8x8dct=1 / cqm=0 / deadzone=21,11 / fast_pskip=0 / chroma_qp_offset=-3 / threads=12 / lookahead_threads=3 / sliced_threads=0 / nr=0 / decimate=0 / interlaced=0 / bluray_compat=0 / constrained_intra=0 / fgo=0 / bframes=15 / b_pyramid=2 / b_adapt=2 / b_bias=0 / direct=3 / weightb=1 / open_gop=0 / weightp=2 / keyint=240 / keyint_min=23 / scenecut=40 / intra_refresh=0 / rc_lookahead=60 / rc=2pass / mbtree=0 / bitrate=1945 / ratetol=1.0 / qcomp=0.70 / qpmin=0 / qpmax=69 / qpstep=4 / cplxblur=20.0 / qblur=0.5 / vbv_maxrate=50000 / vbv_bufsize=62500 / nal_hrd=none / filler=0 / ip_ratio=1.40 / pb_ratio=1.30 / aq=3:0.90
Default : Да
Forced : Нет
Аудио #1
Идентификатор : 2
Формат : AC-3
Формат/Информация : Audio Coding 3
Расширение режима : CM (complete main)
Параметр Endianness формата : Big
Идентификатор кодека : A_AC3
Продолжительность : 2 ч. 26 м.
Вид битрейта : Постоянный
Битрейт : 448 Кбит/сек
Каналы : 6 каналов
Расположение каналов : Front: L C R, Side: L R, LFE
Частота : 48,0 КГц
Частота кадров : 31,250 кадров/сек (1536 spf)
Метод сжатия : С потерями
Размер потока : 470 Мбайт (16%)
Язык : Russian
Default : Да
Forced : Нет
Аудио #2
Идентификатор : 3
Формат : AC-3
Формат/Информация : Audio Coding 3
Расширение режима : CM (complete main)
Параметр Endianness формата : Big
Идентификатор кодека : A_AC3
Продолжительность : 2 ч. 26 м.
Вид битрейта : Постоянный
Битрейт : 448 Кбит/сек
Каналы : 6 каналов
Расположение каналов : Front: L C R, Side: L R, LFE
Частота : 48,0 КГц
Частота кадров : 31,250 кадров/сек (1536 spf)
Метод сжатия : С потерями
Размер потока : 470 Мбайт (16%)
Язык : English
Default : Нет
Forced : Нет
Текст #1
Идентификатор : 4
Формат : UTF-8
Идентификатор кодека : S_TEXT/UTF8
Идентификатор кодека/Информация : UTF-8 Plain Text
Продолжительность : 2 ч. 25 м.
Битрейт : 1 бит/сек
Count of elements : 45
Размер потока : 1,92 Кбайт (0%)
Заголовок : forced
Язык : Russian
Default : Да
Forced : Нет
Текст #2
Идентификатор : 5
Формат : UTF-8
Идентификатор кодека : S_TEXT/UTF8
Идентификатор кодека/Информация : UTF-8 Plain Text
Продолжительность : 2 ч. 26 м.
Битрейт : 130 бит/сек
Count of elements : 2360
Размер потока : 140 Кбайт (0%)
Язык : Russian
Default : Нет
Forced : Нет
Текст #3
Идентификатор : 6
Формат : UTF-8
Идентификатор кодека : S_TEXT/UTF8
Идентификатор кодека/Информация : UTF-8 Plain Text
Продолжительность : 2 ч. 24 м.
Битрейт : 95 бит/сек
Count of elements : 2548
Размер потока : 101 Кбайт (0%)
Язык : English
Default : Нет
Forced : Нет
Текст #4
Идентификатор : 7
Формат : UTF-8
Идентификатор кодека : S_TEXT/UTF8
Идентификатор кодека/Информация : UTF-8 Plain Text
Продолжительность : 2 ч. 26 м.
Битрейт : 102 бит/сек
Count of elements : 2727
Размер потока : 110 Кбайт (0%)
Заголовок : SDH
Язык : English
Default : Нет
Forced : Нет
Меню
00:00:00.000 : en:Chapter 1
00:05:07.932 : en:Chapter 2
00:09:05.378 : en:Chapter 3
00:16:27.486 : en:Chapter 4
00:24:58.121 : en:Chapter 5
00:33:25.545 : en:Chapter 6
00:43:26.270 : en:Chapter 7
00:51:24.498 : en:Chapter 8
00:58:08.318 : en:Chapter 9
01:03:50.785 : en:Chapter 10
01:11:24.071 : en:Chapter 11
01:17:36.652 : en:Chapter 12
01:24:02.162 : en:Chapter 13
01:33:53.085 : en:Chapter 14
01:40:25.352 : en:Chapter 15
01:47:25.730 : en:Chapter 16
01:57:53.316 : en:Chapter 17
02:07:57.419 : en:Chapter 18
02:13:39.011 : en:Chapter 19
02:19:13.762 : en:Chapter 20
Скриншоты:
Яндекс.Метрика
Рейтинг@Mail.ru