Река / River (2015) WEB-DLRip [VO]

 

Создавать темы 06-Июл-2016 11:49

- Река / River (2015) WEB-DLRip - Производство: Канада, Лаос
Жанр: Триллер
Режиссер: Джэми М. Дагг
Актеры: Россиф Сазерленд, Дуангмони Солифанх, Сара Ботсфорд, Тед Атертон, Дэвид Сончин, Эйдан Джиллетт, Яновутти Чангхолунси, Карен Глэйв, Витхая Пансрингарм
Описание:
Главный герой фильма - врач, который добровольно решил отправиться в Лаос. Однажды ночью он становится свидетелем насилия над девушкой. Врач вступается за беззащитную девушку. Но это происшествие заставило его податься в бега. Ведь теперь его обвиняют в убийстве насильника, тело которого обнаружили в реке Меконг. Врачу приходиться скрываться, чтобы самому не стать жертвой...
Продолжительность: 01:26:48
Качество видео: WEB-DLRip [thumb]http://sendfile.su/1247916[/thumb]
Перевод: Одноголосый закадровый, любительский (Хихидок)
Видео: Xvid, 720x304, ~1881 kbps
Аудио 1 : AC3, 2 ch, 192 kbps - Русский
Аудио 2 : AC3, 2 ch, 192 kbps - Английский

Mediainfo:

Общее
Полное имя                               : J:\Reka.RU.avi
Формат                                   : AVI
Формат/Информация                        : Audio Video Interleave
Размер файла                             : 1,38 Гбайт
Продолжительность                        : 1 ч. 26 м.
Общий поток                              : 2279 Кбит/сек
Программа кодирования                    : VirtualDubMod 1.5.10.3 | [url=http://www.virtualdub-fr.org]www.virtualdub-fr.org[/url] || (build 2550/release)
Библиотека кодирования                   : VirtualDubMod build 2550/release
Видео
Идентификатор                            : 0
Формат                                   : MPEG-4 Visual
Профиль формата                          : Advanced [email protected]
Параметр BVOP формата                    : 2
Параметр QPel формата                    : Нет
Параметр GMC формата                     : Без точки перехода
Параметр матрицы формата                 : Default (H.263)
Идентификатор кодека                     : XVID
Идентификатор кодека/Подсказка           : XviD
Продолжительность                        : 1 ч. 26 м.
Битрейт                                  : 1881 Кбит/сек
Ширина                                   : 720 пикселей
Высота                                   : 304 пикселя
Соотношение сторон                       : 2,35:1
Частота кадров                           : 23,976 (23976/1000) кадра/сек
Цветовое пространство                    : YUV
Субдискретизация насыщенности            : 4:2:0
Битовая глубина                          : 8 бит
Тип развёртки                            : Прогрессивная
Метод сжатия                             : С потерями
Бит/(Пиксели*Кадры)                      : 0.358
Размер потока                            : 1,14 Гбайт (83%)
Библиотека кодирования                   : XviD 73
Аудио #1
Идентификатор                            : 1
Формат                                   : AC-3
Формат/Информация                        : Audio Coding 3
Расширение режима                        : CM (complete main)
Параметр Endianness формата              : Big
Идентификатор кодека                     : 2000
Продолжительность                        : 1 ч. 26 м.
Вид битрейта                             : Постоянный
Битрейт                                  : 192 Кбит/сек
Каналы                                   : 2 канала
Расположение каналов                     : Front: L R
Частота                                  : 48,0 КГц
Частота кадров                           : 31,250 кадров/сек (1536 spf)
Метод сжатия                             : С потерями
Размер потока                            : 119 Мбайт (8%)
Выравнивание                             : Разделение по промежуткам
Продолжительность промежутка             : 42  мс. (1,00 видеокадр)
Время предзагрузки промежутка            : 500  мс.
Аудио #2
Идентификатор                            : 2
Формат                                   : AC-3
Формат/Информация                        : Audio Coding 3
Расширение режима                        : CM (complete main)
Параметр Endianness формата              : Big
Идентификатор кодека                     : 2000
Продолжительность                        : 1 ч. 26 м.
Вид битрейта                             : Постоянный
Битрейт                                  : 192 Кбит/сек
Каналы                                   : 2 канала
Расположение каналов                     : Front: L R
Частота                                  : 48,0 КГц
Частота кадров                           : 31,250 кадров/сек (1536 spf)
Метод сжатия                             : С потерями
Размер потока                            : 119 Мбайт (8%)
Выравнивание                             : Разделение по промежуткам
Продолжительность промежутка             : 42  мс. (1,00 видеокадр)
Время предзагрузки промежутка            : 500  мс.
Скриншоты:
Яндекс.Метрика
Рейтинг@Mail.ru