[ Сегодня на трекере фрилич! Идет свободное скачивание без начисления Download ]

Отмель / The Shallows (Хауме Кольет-Серра / Jaume Collet-Serra) [2016 г., ужасы, триллер, драма, TeleSynch] MVO

 

Создавать темы 06-Июл-2016 03:56

-Отмель / The Shallows-- Производство: США, Columbia Pictures, Ombra Films, Weimaraner Republic Pictures, ...
Год выпуска: 2016 г.
Жанр: ужасы, триллер, драма
Продолжительность: 01:18:55Мировая премьера: 24 июня 2016
Российская премьера: 7 июля 2016, «WDSSPR»
Перевод: Любительский (многоголосый, закадровый) [СПД]
Режиссер: Хауме Кольет-Серра / Jaume Collet-Serra-В ролях: Блейк Лайвли, Оскар Хаэнада, Бретт Каллен, Седона Ледже, Энди Корзо-Описание: Бескрайний океан, безлюдный пляж и идеальная погода для сёрфингистов в поисках хорошей волны. Казалось бы, ничто не предвещает беды для очаровательной любительницы сёрфинга в одиночку. Разве что свидание тет-а-тет с гигантской акулой, которая загонит спортсменку на песчаную отмель и не отступит до тех пор, пока не получит своё...-
Качество видео: TeleSynch
Контейнер: MKV
Видео кодек: MPEG4 AVC
Аудио кодек: AC3
Видео: 720х320, 1090 Кбит/сек, 30,000 кадров/сек
Аудио: 128 Кбит/сек, 2 канала, 48,0 КГц
Cубтитры: отсутствуют

Рецензия

Современный вариант наслаждения одиночествомИзвини, я из Америки (с)Чего только не происходит с героями в современных страшилках. И все-таки самыми пугающими остаются реалистичные истории, когда зрителям легко представить себя на месте героев с экрана. А т. к. когда-то рассказанная Стивеном Спилбергом история об акуле способна трансформироваться и осовремениваться, продюсеры не могли отказать себе в удовольствии и не подзаработать.Нэнси приезжает на дикий пляж, который когда-то посещала ее беременная мама. Она мечтает о лучших волнах в ее жизни, но дело принимает угрожающий характер, когда девушка снова входит в воду. День подходит к концу, да и заплывает она слишком далеко. А к ее доске с огромной скоростью уже приближается огромная акула, которая не прочь подкрепиться.Поначалу возникает ощущение, что «Отмель» снял какой-то клипмейкер, настолько камера рекламирует все, что существует вокруг героев картины. Потом появляется подозрение про мужа Лайвли, Райана Рейнольдса, уж очень тщательно камера обследует выдающиеся части актрисы и бдит за каждым ее движением. Но создателем проекта в итоге оказывается Хауме Кольет-Серра, любимчик Лиама Нисона, который снялся у него уже трижды. Режиссер решил покорить еще один жанр и надо сказать, ему это удалось. Да есть претензии: слишком сильные заигрывания с жанровыми клише и невыразительный финал, но картина получилась и это значит, что он сможет продолжить свои эксперименты.Сценарий у картины явно стоил продюсерам недешево. Введение и развитие очень четко прописаны, как и легкая издевка над американцами в плане, зависимости людей от технологий и зарождения самого страха. Дальше хуже, ближе к середине фильма начинает зарождаться ощущение того, что сюжет был растянут из короткометражки. Т. к. после использования большинства вариантов расширения мира героини, существующей на камне, а создателям уже почти нечем крыть и до финальных титров еще далеко.В подобных проектах сложно говорит об актерах… Для Блейк Лайвли бенефисом была картина «Век Аделин», «Отмель» же это такой приятный бонус, позволяющей актрисе показать зрителям, как она может одна существовать на экране, ну или не одна, если учитывать всю живность плавающую и летающую вокруг.Постоянный оператор режиссера Флавио Мартинес Лабиано каждый раз находит новый подход к истории и выбранному Кольет-Серра жанру. В данном случае его задачами были невероятные пейзажи, эффектные съемки водных трюков и пугательные моменты, которым он явно отдал предпочтение, т. к. работают они почти без промаха.Известный композитор Марко Белтрами написал разнообразнейшую музыку для картины. Особенно ему удались отыгрыши страшных моментов, которые каждый раз заставляют зрителей подпрыгивать в креслах.«Отмель» — камерная, красивая и страшная история, как по глупости человеческой происходят страшные события. Да, иногда эффекты и сюжет не справляются с нагнетанием и комкают финал, но в остальном, это один из сюрпризов летнего сезона, способный привлечь внимание зрителей.6 из 10

Media Info

Общее
Уникальный идентификатор : 245996050472220774060457734823879626813 (0xB9111DB0E6A517BB9F68DB3A99DBD03D)
Полное имя : J:\Отмель\Otmel.2016.TS.[pirat.ca].mkv
Формат : Matroska
Версия формата : Version 2
Размер файла : 689 Мбайт
Продолжительность : 1 ч. 18 м.
Общий поток : 1220 Кбит/сек
Дата кодирования : UTC 2016-07-05 12:56:03
Программа кодирования : mkvmerge v5.3.0 ('I could have danced') built on Feb 9 2012 10:38:07
Библиотека кодирования : libebml v1.2.3 + libmatroska v1.3.0Видео
Идентификатор : 1
Формат : AVC
Формат/Информация : Advanced Video Codec
Профиль формата : [email protected]/* */
Параметр CABAC формата : Да
Параметр ReFrames формата : 5 кадров
Идентификатор кодека : V_MPEG4/ISO/AVC
Продолжительность : 1 ч. 18 м.
Битрейт : 1090 Кбит/сек
Ширина : 720 пикселей
Высота : 320 пикселей
Соотношение сторон : 2,25:1
Режим частоты кадров : Постоянный
Частота кадров : 30,000 кадров/сек
Цветовое пространство : YUV
Субдискретизация насыщенности : 4:2:0
Битовая глубина : 8 бит
Тип развёртки : Прогрессивная
Бит/(Пиксели*Кадры) : 0.158
Размер потока : 603 Мбайт (88%)
Заголовок : The Shallows (2016) TS-AVC
Библиотека кодирования : x264 core 146 r2538 121396c
Настройки программы : cabac=1 / ref=5 / deblock=1:-1:-1 / analyse=0x3:0x113 / me=umh / subme=8 / psy=1 / psy_rd=1.00:0.00 / mixed_ref=1 / me_range=16 / chroma_me=1 / trellis=1 / 8x8dct=1 / cqm=0 / deadzone=21,11 / fast_pskip=1 / chroma_qp_offset=-2 / threads=60 / lookahead_threads=2 / sliced_threads=0 / nr=0 / decimate=1 / interlaced=0 / bluray_compat=0 / constrained_intra=0 / bframes=3 / b_pyramid=2 / b_adapt=2 / b_bias=0 / direct=3 / weightb=1 / open_gop=0 / weightp=2 / keyint=300 / keyint_min=30 / scenecut=40 / intra_refresh=0 / rc_lookahead=50 / rc=2pass / mbtree=1 / bitrate=1090 / ratetol=1.0 / qcomp=0.60 / qpmin=10 / qpmax=51 / qpstep=4 / cplxblur=20.0 / qblur=0.5 / vbv_maxrate=62500 / vbv_bufsize=78125 / nal_hrd=none / filler=0 / ip_ratio=1.40 / aq=1:1.00
Default : Да
Forced : НетАудио
Идентификатор : 2
Формат : AC-3
Формат/Информация : Audio Coding 3
Расширение режима : CM (complete main)
Параметр Endianness формата : Big
Идентификатор кодека : A_AC3
Продолжительность : 1 ч. 18 м.
Вид битрейта : Постоянный
Битрейт : 128 Кбит/сек
Каналы : 2 канала
Расположение каналов : Front: L R
Частота : 48,0 КГц
Частота кадров : 31,250 кадров/сек (1536 spf)
Метод сжатия : С потерями
Размер потока : 72,3 Мбайт (10%)
Язык : Russian
Default : Да
Forced : Нет

Скриншот c названием фильма

Скриншоты

-Трейлер
Яндекс.Метрика
Рейтинг@Mail.ru