Пара в норе / Couple in a Hole (Том Гинс / Tom Geens) [2015 г., триллер, драма, WEB-DL, 720p] MVO

 

Создавать темы 06-Июл-2016 03:54

-Пара в норе / Couple in a Hole-- Производство: Великобритания, Бельгия, Франция
Год выпуска: 2015 г.
Жанр: триллер, драма
Продолжительность: 01:44:47Мировая премьера: 15 сентября 2015
Перевод: Любительский (многоголосый, закадровый) [СПД]
Режиссер: Том Гинс / Tom Geens-В ролях: Пол Хиггинс, Кейт Дики, Жером Киршер, Корина Масьеро, ...-Описание: Жизнь влюблённоё пары становится совсем другой, когда они оказываются одни в природных диких уголках Франции. Весь тот период жизни, что у них был раньше - никак не вписывался в настоящее. Им придеться не жить, а выживать...-
Качество видео: WEB-DL
Контейнер: MKV
Стандарт разрешения: 720p
Видео кодек: MPEG4 AVC
Аудио кодек: AC3
Видео: 1280x532 (2.40:1), 24.000 fps, MPEG-4 AVC ~4 001 kbps avg
Аудио: 48.0 kHz, AC3 Dolby Digital, 3/2 (L,C,R,l,r) + LFE ch, ~384 kbps | RUS
Cубтитры: отсутствуют

Media Info

Общее
Уникальный идентификатор : 244332404415564012314842178635736535916 (0xB7D0B59B8DAC52D39CBCC2CB60A7D36C)
Полное имя : J:\Пара в Холе\Para v Hole.2015.L.720p.WEB-DL.[pirat.ca.mkv
Формат : Matroska
Версия формата : Version 2
Размер файла : 3,28 Гбайт
Продолжительность : 1 ч. 44 м.
Общий поток : 4481 Кбит/сек
Дата кодирования : UTC 2016-07-05 13:55:59
Программа кодирования : mkvmerge v5.3.0 ('I could have danced') built on Feb 9 2012 10:38:07
Библиотека кодирования : libebml v1.2.3 + libmatroska v1.3.0Видео
Идентификатор : 1
Формат : AVC
Формат/Информация : Advanced Video Codec
Профиль формата : [email protected]/* */
Параметр CABAC формата : Нет
Параметр ReFrames формата : 2 кадра
Идентификатор кодека : V_MPEG4/ISO/AVC
Продолжительность : 1 ч. 44 м.
Битрейт : 4008 Кбит/сек
Ширина : 1280 пикселей
Высота : 532 пикселя
Соотношение сторон : 2,40:1
Режим частоты кадров : Постоянный
Частота кадров : 24,000 кадра/сек
Цветовое пространство : YUV
Субдискретизация насыщенности : 4:2:0
Битовая глубина : 8 бит
Тип развёртки : Прогрессивная
Бит/(Пиксели*Кадры) : 0.245
Размер потока : 2,93 Гбайт (89%)
Язык : English
Default : Да
Forced : Нет
Цветовой диапазон : Limited
Основные цвета : BT.709
Характеристики трансфера : BT.709
Коэффициенты матрицы : BT.709Аудио
Идентификатор : 2
Формат : AC-3
Формат/Информация : Audio Coding 3
Расширение режима : CM (complete main)
Параметр Endianness формата : Big
Идентификатор кодека : A_AC3
Продолжительность : 1 ч. 44 м.
Вид битрейта : Постоянный
Битрейт : 384 Кбит/сек
Каналы : 6 каналов
Расположение каналов : Front: L C R, Side: L R, LFE
Частота : 48,0 КГц
Частота кадров : 31,250 кадров/сек (1536 spf)
Метод сжатия : С потерями
Размер потока : 288 Мбайт (9%)
Язык : Russian
Default : Да
Forced : ДаМеню
00:00:00.000 : en:Chapter 1
00:09:32.833 : en:Chapter 2
00:17:30.124 : en:Chapter 3
00:27:58.124 : en:Chapter 4
00:35:15.790 : en:Chapter 5
00:45:41.915 : en:Chapter 6
00:53:00.040 : en:Chapter 7
01:01:13.915 : en:Chapter 8
01:12:35.998 : en:Chapter 9
01:20:07.831 : en:Chapter 10
01:28:03.706 : en:Chapter 11
01:40:43.289 : en:Chapter 12

Скриншот c названием фильма

Скриншоты

-Трейлер
Яндекс.Метрика
Рейтинг@Mail.ru