Земля Чато / Chato's Land (Майкл Уиннер / Michael Winner) [1972 г., вестерн, BDRip] MVO [Somewax] + DVO [HTB+]

 

Создавать темы 06-Июл-2016 03:52

-Земля Чато / Chato's Land-- Производство: Великобритания
Год выпуска: 1972 г.
Жанр: вестерн
Продолжительность: 01:40:29Мировая премьера: 25 мая 1972
Перевод: Профессиональный (многоголосый, закадровый) [Somewax]
Перевод 2: Профессиональный (двухголосый, закадровый) [HTB+]
Режиссер: Майкл Уиннер / Michael Winner-В ролях: Чарльз Бронсон, Джек Пэланс, Джеймс Уитмор, Саймон Оукленд, Ральф Уэйт, Ричард Джордан, Виктор Френч, Sonia Rangan, Уильям Уотсон, Родди МакМиллан-Описание: Индеец-полукровка по имени Чато убивает шерифа небольшого городка и пускается в бега. Его преследует целый отряд, возглавляемый бывшим конфедератом, офицером Зитмором. Но отыскать индейца в прериях — задача просто невыполнимая.
Отчаявшись поймать беглеца, охотники берут в плен его жену и насилуют её. Чато превращается в яростного и беспощадного мстителя…-
Качество видео: BDRip
Контейнер: AVI
Видео кодек: XviD
Аудио кодек: AC3
Видео: 720x384 (1.88:1), 23.976 fps, XviD build 73 ~1682 kbps avg, 0.25 bit/pixel
Аудио: 48 kHz, AC3 Dolby Digital, 2/0 (L,R) ch, ~192 kbps - Somewax
Аудио #2: 48 kHz, AC3 Dolby Digital, 2/0 (L,R) ch, ~192 kbps - HTB+
Cубтитры: отсутствуют

Рецензия

Месть БронсонаЗаходит как то Чарльз Бронсон в бар, а ему там не рады. По причине того, что он индеец-полукровка, ему даже стакан виски не продадут, а местный шериф сразу же начнет его оскорблять. В следующую секунду шериф получит пулю, а за поимкой Бронсона тут же будет собран отряд под предводительством капитана Куинси, который только и ждал подходящего случая, чтоб вновь расчехлить свой военный костюм.Как говорится, «с места в карьер» стартует данный вестерн, поначалу создавая ощущения, что просмотр ты начал с середины. И это обстоятельство немного обезоруживает, наталкивая на мысли, что перед тобой напрочь прямолинейная «стрелялка — догонялка», где режиссер со сценаристом даже не потрудились как то представить героя и место действия, а сразу без лишних слов перешли к делу, ведь завязка целого фильма происходит на второй минуте просмотра. Но это оказалось не так.По следам индейца пускается разношерстная компания суровых ковбоев, у которых по сути одна цель — поймать индейца, но разные мотивы. Это обстоятельство делает отряд отнюдь не сборищем шаблонных злодеев. Не каждым, пустившимся в погоню, движет расизм и жажда крови, в отряде есть и те, кому просто не хватило духу ответить отказом, ведь это бы отразилось на их репутации в городе, да и сам процесс поимки с насилием им не по душе. Но разве есть разница, если ты все равно отправился в путь вместе со всеми…Имя Чарльз Бронсона — это такой же синоним крутости, как например имя Чака Норриса. Немногословный, всегда с прищуром глаз, он практически во всех своих картинах играет одну и ту же роль. Его имя по сценарию может быть любым — на экране всегда именно Бронсон, и не поздоровится любому, кто встанет у него на пути. И «Земля Чато» в этом плане не исключение.Неожиданно однако, что, несмотря на главную роль, экранное время у героя Бронсона крайне непродолжительное. Большая часть времени отведена как раз отряду и их внутренним междоусобицам, в результате которых «выбывание» персонажей из истории становится достаточно непредсказуемым. Этим по большому счету картина Майкла Уиннера и выделяется, и запоминается из многочисленных собратьев по жанру.

Media Info

Общее
Полное имя : G:\Земля Чато\Zemlja CHato.1972.BDRip.[pirat.ca].avi
Формат : AVI
Формат/Информация : Audio Video Interleave
Размер файла : 1,46 Гбайт
Продолжительность : 1 ч. 40 м.
Общий поток : 2077 Кбит/сек
Название фильма : Zemlja CHato.1972.BDRip.[pirat.ca]Видео
Идентификатор : 0
Формат : MPEG-4 Visual
Профиль формата : Advanced [email protected]/* */
Параметр BVOP формата : 1
Параметр QPel формата : Нет
Параметр GMC формата : Без точки перехода
Параметр матрицы формата : Выборочная
Идентификатор кодека : XVID
Идентификатор кодека/Подсказка : XviD
Продолжительность : 1 ч. 40 м.
Битрейт : 1683 Кбит/сек
Ширина : 720 пикселей
Высота : 384 пикселя
Соотношение сторон : 1,85:1
Частота кадров : 23,976 (24000/1001) кадра/сек
Цветовое пространство : YUV
Субдискретизация насыщенности : 4:2:0
Битовая глубина : 8 бит
Тип развёртки : Прогрессивная
Метод сжатия : С потерями
Бит/(Пиксели*Кадры) : 0.254
Размер потока : 1,18 Гбайт (81%)
Библиотека кодирования : XviD 73Аудио #1
Идентификатор : 1
Формат : AC-3
Формат/Информация : Audio Coding 3
Расширение режима : CM (complete main)
Параметр Endianness формата : Big
Идентификатор кодека : 2000
Продолжительность : 1 ч. 40 м.
Вид битрейта : Постоянный
Битрейт : 192 Кбит/сек
Каналы : 2 канала
Расположение каналов : Front: L R
Частота : 48,0 КГц
Частота кадров : 31,250 кадров/сек (1536 spf)
Метод сжатия : С потерями
Размер потока : 138 Мбайт (9%)
Выравнивание : Соединение по промежуткам
Продолжительность промежутка : 64 мс. (1,53 видеокадра)
Время предзагрузки промежутка : 192 мс.
Заголовок : SomewaxАудио #2
Идентификатор : 2
Формат : AC-3
Формат/Информация : Audio Coding 3
Расширение режима : CM (complete main)
Параметр Endianness формата : Big
Идентификатор кодека : 2000
Продолжительность : 1 ч. 40 м.
Вид битрейта : Постоянный
Битрейт : 192 Кбит/сек
Каналы : 2 канала
Расположение каналов : Front: L R
Частота : 48,0 КГц
Частота кадров : 31,250 кадров/сек (1536 spf)
Метод сжатия : С потерями
Размер потока : 138 Мбайт (9%)
Выравнивание : Соединение по промежуткам
Продолжительность промежутка : 64 мс. (1,53 видеокадра)
Время предзагрузки промежутка : 192 мс.
Заголовок : HTB+

Скриншот c названием фильма

Скриншоты

-Трейлер
Яндекс.Метрика
Рейтинг@Mail.ru