Максимальное ускорение / Maximum Overdrive (Стивен Кинг / Stephen King) [1986 г., ужасы, фантастика, боевик, триллер, комедия, BDRip-AVC, 720p] DVO [R5] + Sub (Rus)

 

Создавать темы 06-Июл-2016 03:49

-Максимальное ускорение / Maximum Overdrive-- Производство: США, De Laurentiis Entertainment Group (DEG)
Год выпуска: 1986 г.
Жанр: ужасы, фантастика, боевик, триллер, комедия
Продолжительность: 01:38:06Мировая премьера: 25 июля 1986
Перевод: Профессиональный (двухголосый, закадровый) [R5]
Режиссер: Стивен Кинг / Stephen King-В ролях: Эмилио Эстевес (Bill Robinson), Пэт Хингл (Hendershot), Лора Хэррингтон (Brett), Ярдли Смит (Connie), Джон Шорт (Curt), Эллен МакЭлдафф (Wanda June), Дж. К. Куин (Duncan), Кристофер Мёрни (Camp Loman), Холтер Грэм (Deke), Фрэнки Фэйзон (Handy), Пэт Миллер (Joe), Джек Кэнон (Max)-Описание: Когда комета Ри-М проходит через орбиту Земли и задевает ее своим хвостом, происходит глобальная катастрофа. Перестают качать насосы, выходят из строя компьютеры, электрические ножи режут домохозяек, а газонокосилки косят людей как траву. Внезапно ожившие машины из лучших друзей человека превращаются в его злейших врагов, жаждущих человеческой крови. Особенно безжалостно ведут себя огромные грузовики, давящие всех на своем пути.
Горстка людей во главе с Билли Робинсоном, укрывшись от стаи взбесившихся грузовиков в здании бензозаправочной станции, готовится дать последний бой взбунтовавшимся машинам...-
Качество видео: BDRip-AVC
Контейнер: MKV
Стандарт разрешения: 720p
Видео кодек: MPEG4 AVC
Аудио кодек: AC3
Видео: AVC, 1280x548 (2.35:1), 7081 kbps, 23,976 fps, 0,421 bpp
Аудио: русский / AC3 / 5.1 / 48 kHz / 448 kbps / 16 bit |DVO (DVD R5)|
Cубтитры: русские
Формат субтитров: softsub (SRT)
Доп. информация о субтитрах: включаемые

Доп. информация

Музыкальное сопровождение к фильму написала группа «AC/DC», которую выбрал сам Стивен Кинг.
Во время съемок произошел несчастный случай, когда механическая газонокосилка действительно вышла из-под контроля. В результате этого оператор Армандо Наннуцци потерял глаз. Он обратился в суд с иском к Стивену Кингу на 18 миллионов долларов. Позднее дело было решено полюбовно.

Рецензия

И вновь затрагивается так любимая Стивеном Кингом тема восстания машин. Складывается ощущение, что он хочет этими фильмами нас предостеречь. Что, мол, такое быстрое развитие технологий может привести к тому, что техника получит свой собственный искусственный разум и больше не будет зависеть от человека, а как раз наоборот. И настолько эта тема его волнует, что он сам решил занять кресло режиссера. Итак, «Максимальное ускорение».Я думаю, долго можно рассуждать о философском контексте данного фильма. Но почему то в данном случае этого делать не хочется. Просто хочется насладиться качественной картинкой и ни о чем не задумываться. Так мы и сделаем. Ну что ж, перед нами неплохой «технологический» триллер об оживших (какой уже раз) машинах. По сравнению с «Грузовиками» «Максимальное ускорение» получился более эффектным и кровавым. Сцены убийств показаны достаточно детально и впечатляюще. Особенно заинтересовала сцена проезда катка по мальчику. Тут уж Кинг дал волю своей фантазии. Все это приправлено значительной долей юмора. Больше всего понравилась пара новобрачных. Их колоритные персонажи заставляли улыбаться на протяжении всего фильма. Некоторая абсурдность действий героев тоже, в какой то мере, придает фильму комедийный оттенок.Если вы хотите скрасить вечер за просмотром чего то качественного и не напрягающего, то «Максимальное ускорение» вполне для этого подходит.7 из 10

Media Info

Общее
Уникальный идентификатор : 214669666422874587524676807499906798973 (0xA17FDFB60BA384C2A73BC8E088D3D57D)
Полное имя : F:\Максимальное ускорение\Maksimaljhoe uskorenie.1986.BDRip.720p.[pirat.ca].mkv
Формат : Matroska
Версия формата : Version 2
Размер файла : 5,28 Гбайт
Продолжительность : 1 ч. 38 м.
Общий поток : 7698 Кбит/сек
Название фильма : Maximum Overdrive 1986 BDRip 720p
Дата кодирования : UTC 2016-07-05 14:50:23
Программа кодирования : mkvmerge v5.3.0 ('I could have danced') built on Feb 9 2012 10:38:07
Библиотека кодирования : libebml v1.2.3 + libmatroska v1.3.0
Обложка : Yes
Attachments : cover.jpgВидео
Идентификатор : 1
Формат : AVC
Формат/Информация : Advanced Video Codec
Профиль формата : [email protected]/* */
Параметр CABAC формата : Да
Параметр ReFrames формата : 11 кадров
Идентификатор кодека : V_MPEG4/ISO/AVC
Продолжительность : 1 ч. 38 м.
Битрейт : 7097 Кбит/сек
Ширина : 1280 пикселей
Высота : 548 пикселей
Соотношение сторон : 2,35:1
Режим частоты кадров : Постоянный
Частота кадров : 23,976 (24000/1001) кадра/сек
Цветовое пространство : YUV
Субдискретизация насыщенности : 4:2:0
Битовая глубина : 8 бит
Тип развёртки : Прогрессивная
Бит/(Пиксели*Кадры) : 0.422
Размер потока : 4,86 Гбайт (92%)
Библиотека кодирования : x264 core 146 r2538kMod 121396c
Настройки программы : cabac=1 / ref=11 / deblock=1:-3:-3 / analyse=0x3:0x133 / me=esa / subme=10 / psy=1 / fade_compensate=0.00 / psy_rd=1.00:0.05 / mixed_ref=1 / me_range=24 / chroma_me=1 / trellis=2 / 8x8dct=1 / cqm=0 / deadzone=21,11 / fast_pskip=0 / chroma_qp_offset=-3 / threads=6 / lookahead_threads=1 / sliced_threads=0 / nr=0 / decimate=1 / interlaced=0 / bluray_compat=0 / constrained_intra=0 / fgo=0 / bframes=12 / b_pyramid=2 / b_adapt=2 / b_bias=0 / direct=3 / weightb=1 / open_gop=0 / weightp=2 / keyint=250 / keyint_min=23 / scenecut=40 / intra_refresh=0 / rc_lookahead=60 / rc=crf / mbtree=0 / crf=16.5000 / qcomp=0.65 / qpmin=0 / qpmax=69 / qpstep=4 / vbv_maxrate=62500 / vbv_bufsize=78125 / crf_max=0.0 / nal_hrd=none / filler=0 / ip_ratio=1.30 / pb_ratio=1.20 / aq=1:0.80
Язык : English
Default : Да
Forced : Нет
Цветовой диапазон : Limited
Основные цвета : BT.709
Характеристики трансфера : BT.709
Коэффициенты матрицы : BT.709
Statistics Tags Issue : mkvmerge v9.2.0 ('Photograph') 64bit 2016-07-05 08:56:44 / mkvmerge v5.3.0 ('I could have danced') built on Feb 9 2012 10:38:07 2016-07-05 14:50:23
FromStats_BitRate : 7247947
FromStats_Duration : 01:38:06.464000000
FromStats_FrameCount : 141134
FromStats_StreamSize : 5333097824Аудио
Идентификатор : 2
Формат : AC-3
Формат/Информация : Audio Coding 3
Расширение режима : CM (complete main)
Параметр Endianness формата : Big
Идентификатор кодека : A_AC3
Продолжительность : 1 ч. 38 м.
Вид битрейта : Постоянный
Битрейт : 448 Кбит/сек
Каналы : 6 каналов
Расположение каналов : Front: L C R, Side: L R, LFE
Частота : 48,0 КГц
Частота кадров : 31,250 кадров/сек (1536 spf)
Метод сжатия : С потерями
Размер потока : 314 Мбайт (6%)
Заголовок : DVO (DVD R5)
Язык : Russian
Default : Да
Forced : Нет
Statistics Tags Issue : mkvmerge v9.2.0 ('Photograph') 64bit 2016-07-05 08:56:44 / mkvmerge v5.3.0 ('I could have danced') built on Feb 9 2012 10:38:07 2016-07-05 14:50:23
FromStats_BitRate : 448000
FromStats_Duration : 01:38:06.432000000
FromStats_FrameCount : 183951
FromStats_StreamSize : 329640192Текст
Идентификатор : 3
Формат : UTF-8
Идентификатор кодека : S_TEXT/UTF8
Идентификатор кодека/Информация : UTF-8 Plain Text
Заголовок : Full
Язык : Russian
Default : Нет
Forced : Нет
Statistics Tags Issue : mkvmerge v9.2.0 ('Photograph') 64bit 2016-07-05 08:56:44 / mkvmerge v5.3.0 ('I could have danced') built on Feb 9 2012 10:38:07 2016-07-05 14:50:23
FromStats_BitRate : 47
FromStats_Duration : 01:34:43.422000000
FromStats_FrameCount : 671
FromStats_StreamSize : 33999Меню #1
00:00:00.000 : en:1. Main Titles / A Situation Here!
00:07:05.300 : en:2. That's Some Rig
00:11:13.982 : en:3. Short Circuit
00:15:54.228 : en:4. A Close Call
00:19:33.580 : en:5. Is He Dead?
00:24:52.299 : en:6. Mechanical Revelt
00:29:28.541 : en:7. Duncan, Look Out!
00:34:45.291 : en:8. Surrounded
00:41:37.269 : en:9. Bombs Away!
00:45:36.141 : en:10. I'm Warning You!
00:51:18.850 : en:11. Lights Out
00:58:28.647 : en:12. Dead On Arrival?
01:05:09.013 : en:13. A Lesson In Manners
01:08:30.148 : en:14. You Want A War?
01:14:23.100 : en:15. Morse Code
01:16:36.634 : en:16. Risky Business
01:21:05.202 : en:17. The Coffee Break Is Over
01:25:30.634 : en:18. When I Say Run, You Run
01:30:46.416 : en:19. A Perfect Shot
01:35:24.393 : en:20. End CreditsМеню #2
00:00:00.000 : it:1. La cometa Rhe-M
00:12:49.518 : it:2. Le macchine impazziscono
00:23:16.269 : it:3. Viaggio di nozze
00:36:55.379 : it:4. Sotto sequestro
00:47:30.347 : it:5. L'arsenale
00:58:50.652 : it:6. Piano di recupero
01:10:47.368 : it:7. Riforniteci o morirete
01:22:35.450 : it:8. Piano di evasione

Скриншот c названием фильма

Скриншоты

-Трейлер
Яндекс.Метрика
Рейтинг@Mail.ru