С любовью, Рози / Love, Rosie (Кристиан Диттер / Christian Ditter) [2014 г., мелодрама, комедия, HDRip] Dub [iTunes]

 

Создавать темы 06-Июл-2016 03:19

-С любовью, Рози / Love, Rosie-- Производство: Германия, Великобритания, Canyon Creek Films, Constantin Film Produktion, ...
Год выпуска: 2014 г.
Жанр: мелодрама, комедия
Продолжительность: 01:42:57Мировая премьера: 6 октября 2014
Российская премьера: 13 ноября 2014
Перевод: Профессиональный (полное дублирование) [iTunes]
Режиссер: Кристиан Диттер / Christian Ditter-В ролях: Сэм Клафлин, Лили Коллинз, Сьюки Уотерхаус, Тэмзин Эджертон, Арт Паркинсон, Кристиан Кук, Джэми Уинстон, Лили Лэйт, Ник Ли, Джейк Мэнли-Описание: Рози и Алекс были лучшими друзьями с детства, и теперь, по окончании школы, собираются вместе продолжить учебу в университете.
Однако в их судьбах происходит резкий поворот, когда после ночи со звездой школы Рози узнает, что у нее будет ребенок. Невзирая на то, что обстоятельства и жизненные ситуации разлучают героев, они и спустя годы продолжают помнить друг о друге и о том чувстве, что соединило их в юности…
Экранизация романа Сесилии Ахерн "Там, где заканчивается радуга".-
Качество видео: HDRip
Контейнер: AVI
Видео кодек: XviD
Аудио кодек: AC3
Видео: 720x304 (2.37:1), 23.976 fps, XviD build 65 ~1636 kbps avg, 0.31 bit/pixel
Аудио: 48 kHz, AC3 Dolby Digital, 3/2 (L,C,R,l,r) + LFE ch, ~384 kbps
Cубтитры: отсутствуют

Доп. информация

Экранизация романа Сесилии Ахерн «Там, где заканчивается радуга» (Where Rainbows End). В США роман известен под названиями «С любовью, Рози» (Love, Rosie) и «Рози Данн» (Rosie Dunne).
В фильме, в отличие от романа, описываемые события происходят в течение 12 лет, а не за 50.

Рецензия

Иногда ты не понимаешь, что лучшее, что есть в твоей жизни, находится прямо перед твоим носом.Недавно прочитала книгу С. Ахерн «С любовью, Рози» и осталась под впечатлением.Была очень рада, узнав, что есть и экранизация данного произведения.Что же сказать, фильм очень хороший! Это невообразимое сочетание драмы и комедии, с отличной музыкой, хорошими актерами и довольно интересными диалогами.Мне особенно понравились Сэм Клафлин и Лили Коллинз, они настолько милые, забавные и живые! Они идеальное воплощение Алекса и Рози.Сюжет, конечно, может и не соответствует книжному, но он от этого не стал хуже, наоборот, его сделали ярче, интереснее. Ведь сколько бы не было трудностей у Алекса и Рози, сколько бы бы проходило лет, если два любящих сердца должны быть вместе, они будут.Поэтому, фильм получился очень захватывающим, трогательным и романтичным.9 из 10

Media Info

Общее
Полное имя : D:\D\Рози\S lubovju, Rozi.2014.[pirat.ca].avi
Формат : AVI
Формат/Информация : Audio Video Interleave
Размер файла : 1,46 Гбайт
Продолжительность : 1 ч. 42 м.
Общий поток : 2030 Кбит/сек
Название фильма : S lubovju, Rozi.2014.[pirat.ca]
Программа кодирования : VirtualDubMod 1.5.10.3 | www.virtualdub-fr.org || (build 2550/release)Видео
Идентификатор : 0
Формат : MPEG-4 Visual
Профиль формата : Advanced [email protected]/* */
Параметр BVOP формата : 1
Параметр QPel формата : Нет
Параметр GMC формата : Без точки перехода
Параметр матрицы формата : Выборочная
Идентификатор кодека : XVID
Идентификатор кодека/Подсказка : XviD
Продолжительность : 1 ч. 42 м.
Битрейт : 1637 Кбит/сек
Ширина : 720 пикселей
Высота : 304 пикселя
Соотношение сторон : 2,35:1
Частота кадров : 23,976 (23976/1000) кадра/сек
Цветовое пространство : YUV
Субдискретизация насыщенности : 4:2:0
Битовая глубина : 8 бит
Тип развёртки : Прогрессивная
Метод сжатия : С потерями
Бит/(Пиксели*Кадры) : 0.312
Размер потока : 1,18 Гбайт (81%)
Библиотека кодирования : XviD 65Аудио
Идентификатор : 1
Формат : AC-3
Формат/Информация : Audio Coding 3
Расширение режима : CM (complete main)
Параметр Endianness формата : Big
Идентификатор кодека : 2000
Продолжительность : 1 ч. 42 м.
Вид битрейта : Постоянный
Битрейт : 384 Кбит/сек
Каналы : 6 каналов
Расположение каналов : Front: L C R, Side: L R, LFE
Частота : 48,0 КГц
Частота кадров : 31,250 кадров/сек (1536 spf)
Метод сжатия : С потерями
Размер потока : 283 Мбайт (19%)
Выравнивание : Разделение по промежуткам
Продолжительность промежутка : 42 мс. (1,00 видеокадр)
Время предзагрузки промежутка : 500 мс.

Скриншот c названием фильма

Скриншоты

-Трейлер
Яндекс.Метрика
Рейтинг@Mail.ru