Аватар: Легенда об Аанге / Avatar: The Last Airbender (2006) DVDRip [H.264] (сезон 2, серии 1-20 из 20) (Арт-Дубляж) [MP4|640x480]

 

Создавать темы 05-Июл-2016 13:30

-Аватар: Легенда об Аанге / Avatar: The Last Airbender (2006) DVDRip (сезон 2, серии 1-20 из 20) Арт-Дубляж
«The Avatar Returns»
- Производство: США, Nickelodeon Animation Studios
Жанр: Фэнтези, Приключения, Mультфильм, Семейный
Режиссер: Майкл Данте ДиМартино, Брайан Кониецко, Джанкарло Волп, Этан Сполдинг, Лорен МакМаллен
Актеры: Зак Тайлер, Мэй Уитман, Джек Де Сена, Ди Брэдли Бейкер, Данте Баско, Джесси Флауер, Мако, Грэй Гриффин, Андре Соглиуззо, Крикет Ли
Описание:
Мир разделен на четыре народа: Водные племена, королевство Земли, Воздушные кочевники и Огненная нация. Представители каждого народа обладают способностями управления своей стихией и именуют себя магами Воды, Земли, Воздуха или Огня. Только Аватар является властелином всех четырех стихий. Его роль заключается в поддержке баланса между народами и сохранении мирового порядка.
Однажды предводитель Огненной нации Хозяин Огня развязал войну с целью подчинить себе остальные народы. Отвественность за спасение мира легла на плечи двенадцатилетного мальчика, мага Воздуха по имени Аанг, который узнал, что он Аватар. Аанг отправляется в опасное путешествие вместе со своими отважными друзьями из племени Воды, Катарой и ее братом Соккой. Ему предстоит овладеть всеми стихиями, пройти через множество испытаний, перебороть свои страхи и сразить Хозяина Огня, чтобы остановить войну и восстановить равновесие в мире

Возраст: 6+ (зрителям, достигшим 6 лет)
Продолжительность: ~00:24:00 серия
Качество видео: DVDRip
Перевод: Дублированный - Арт-Дубляж
Видео: AVC/H.264 ([email protected]), 640x480 (4:3), 1000 Кбит/сек
Аудио #1: AAC, 2 канала, 128 Кбит/сек - русский (дублированный, Арт-Дубляж)
Аудио #2: AAC, 2 канала, 128 Кбит/сек - английский (оригинальный)
Аудио #3: AAC, 2 канала, 128 Кбит/сек - французский (дублированный)

Mediainfo:

General
Complete name               : C:\Downloads\AVATAR\Аватар. Легенда об Аанге (Книга 2) Земля (2006).480p.DVDRip.[NNMclub]\Аватар. Легенда об Аанге.S02E01_Состояние Аватара.480p.DVDRip.AAC.x264.mp4
Format                      : MPEG-4
Format profile              : Base Media / Version 2
Codec ID                    : mp42 (mp42/isom)
File size                   : 240 MiB
Duration                    : 24mn 2s
Overall bit rate mode       : Variable
Overall bit rate            : 1 395 Kbps
Collection                  : Аватар: Легенда об Аанге
Season                      : 2
Album                       : Аватар: Легенда об Аанге, Season 2
Album/Sorted by             : Аватар: Легенда об Аанге, Season 2
Part                        : 1
Part/Position               : 1
Part/Total                  : 1
Track name                  : Состояние Аватара
Track name/Position         : 1
Performer                   : Аватар: Легенда об Аанге
Genre                       : Action, Adventure, Animation, Children, Fantasy
ContentType                 : TV Show
Description                 : Аанг должен отправиться в Омашу, чтобы найти себе учителя магии Земли. Однако, придя к своему провожатому, он понимает, что тот хочет, чтобы Аватар помог ему и его людям в битвах против магов Огня. Пытаясь помочь Аангу принять состояние Аватара, провожатый грозит Аангу смертью Катары. Тот переходит в состояние Аватара, и не будучи способным себя контролировать, разрушает всё вокруг. Также в этой серии Аанг узнает, что если его убьют в состоянии аватара, то цикл Аватаров прервётся. / Действие Аватара происходит в мире боевых искусств и покорения стихий, вдохновленном азиатской культурой. Сериал заимствует элементы восточноазиатской, югоазиатской и западной культуры, создавая смесь из до этого обычно разделяемых категорий традиционных мультфильмов США. Сюжет повествует о приключениях Аанга, основного протагониста сериала, и его друзей. Аанг должен спасти мир победив Повелителя Огня и завершив разрушительную войну развязанную Народом Огня.
Recorded date               : UTC 2006-03-17 08:00:00
Encoded date                : UTC 2016-07-05 08:59:54
Tagged date                 : UTC 2016-07-05 09:00:48
Cover                       : Yes
Rating                      : None
TVNetworkName               : Nickelodeon
Part_ID                     : 1
Title/Sort                  : Состояние Аватара / Аватар: Легенда об Аанге
LongDescription             : Аанг должен отправиться в Омашу, чтобы найти себе учителя магии Земли. Однако, придя к своему провожатому, он понимает, что тот хочет, чтобы Аватар помог ему и его людям в битвах против магов Огня. Пытаясь помочь Аангу принять состояние Аватара, провожатый грозит Аангу смертью Катары. Тот переходит в состояние Аватара, и не будучи способным себя контролировать, разрушает всё вокруг. Также в этой серии Аанг узнает, что если его убьют в состоянии аватара, то цикл Аватаров прервётся.
ContentRating               : us-tv|TV-Y7|200|
Video
ID                          : 1
Format                      : AVC
Format/Info                 : Advanced Video Codec
Format profile              : [url=mailto:[email protected]][email protected][/url]
Format settings, CABAC      : No
Format settings, ReFrames   : 4 frames
Codec ID                    : avc1
Codec ID/Info               : Advanced Video Coding
Duration                    : 24mn 2s
Bit rate                    : 1 000 Kbps
Width                       : 640 pixels
Height                      : 480 pixels
Display aspect ratio        : 4:3
Frame rate mode             : Variable
Frame rate                  : 23.976 (24000/1001) fps
Minimum frame rate          : 23.810 fps
Maximum frame rate          : 24.390 fps
Color space                 : YUV
Chroma subsampling          : 4:2:0
Bit depth                   : 8 bits
Scan type                   : Progressive
Bits/(Pixel*Frame)          : 0.136
Stream size                 : 172 MiB (72%)
Writing library             : x264 core 148 r2692 64f4e24
Encoding settings           : cabac=0 / ref=4 / deblock=1:0:0 / analyse=0x3:0x133 / me=umh / subme=7 / psy=1 / psy_rd=0.40:0.00 / mixed_ref=1 / me_range=32 / chroma_me=1 / trellis=2 / 8x8dct=1 / cqm=0 / deadzone=21,11 / fast_pskip=0 / chroma_qp_offset=-2 / threads=15 / lookahead_threads=2 / sliced_threads=0 / nr=0 / decimate=0 / interlaced=0 / bluray_compat=0 / constrained_intra=0 / bframes=3 / b_pyramid=2 / b_adapt=2 / b_bias=0 / direct=3 / weightb=1 / open_gop=0 / weightp=2 / keyint=240 / keyint_min=23 / scenecut=40 / intra_refresh=0 / rc_lookahead=40 / rc=2pass / mbtree=1 / bitrate=1000 / ratetol=1.0 / qcomp=0.60 / qpmin=0 / qpmax=69 / qpstep=4 / cplxblur=20.0 / qblur=0.5 / vbv_maxrate=9000 / vbv_bufsize=9000 / nal_hrd=none / filler=0 / ip_ratio=1.40 / aq=1:0.60
Encoded date                : UTC 2016-07-05 08:59:54
Tagged date                 : UTC 2016-07-05 09:00:44
Color range                 : Limited
Matrix coefficients         : BT.709
Menus                       : 5
Audio #1
ID                          : 2
Format                      : AAC
Format/Info                 : Advanced Audio Codec
Format profile              : LC
Codec ID                    : 40
Duration                    : 24mn 2s
Source duration             : 24mn 2s
Bit rate mode               : Variable
Bit rate                    : 128 Kbps
Maximum bit rate            : 131 Kbps
Channel(s)                  : 2 channels
Channel positions           : Front: L R
Sampling rate               : 48.0 KHz
Frame rate                  : 46.875 fps (1024 spf)
Compression mode            : Lossy
Stream size                 : 22.0 MiB (9%)
Source stream size          : 22.0 MiB (9%)
Language                    : Russian
Default                     : Yes
Alternate group             : 1
Encoded date                : UTC 2016-07-05 08:59:54
Tagged date                 : UTC 2016-07-05 09:00:44
Audio #2
ID                          : 3
Format                      : AAC
Format/Info                 : Advanced Audio Codec
Format profile              : LC
Codec ID                    : 40
Duration                    : 24mn 2s
Source duration             : 24mn 2s
Bit rate mode               : Variable
Bit rate                    : 128 Kbps
Maximum bit rate            : 133 Kbps
Channel(s)                  : 2 channels
Channel positions           : Front: L R
Sampling rate               : 48.0 KHz
Frame rate                  : 46.875 fps (1024 spf)
Compression mode            : Lossy
Stream size                 : 22.0 MiB (9%)
Source stream size          : 22.0 MiB (9%)
Language                    : English
Default                     : No
Alternate group             : 1
Encoded date                : UTC 2016-07-05 08:59:54
Tagged date                 : UTC 2016-07-05 09:00:44
Audio #3
ID                          : 4
Format                      : AAC
Format/Info                 : Advanced Audio Codec
Format profile              : LC
Codec ID                    : 40
Duration                    : 24mn 2s
Source duration             : 24mn 2s
Bit rate mode               : Variable
Bit rate                    : 128 Kbps
Maximum bit rate            : 130 Kbps
Channel(s)                  : 2 channels
Channel positions           : Front: L R
Sampling rate               : 48.0 KHz
Frame rate                  : 46.875 fps (1024 spf)
Compression mode            : Lossy
Stream size                 : 22.0 MiB (9%)
Source stream size          : 22.0 MiB (9%)
Language                    : French
Default                     : No
Alternate group             : 1
Encoded date                : UTC 2016-07-05 08:59:54
Tagged date                 : UTC 2016-07-05 09:00:44
Menu #1
00:00:00.000                : Chapter 01
00:24:00.634                : Chapter 02
Menu #2
ID                          : 5
Codec ID                    : text
Duration                    : 24mn 2s
Language                    : English
Encoded date                : UTC 2016-07-05 09:00:44
Tagged date                 : UTC 2016-07-05 09:00:44
Bit rate mode               : CBR
Menu For                    : 1
Duration_FirstFrame         : 1439162
00:00:00.000                : Chapter 01
00:24:00.634                : Chapter 02

Список серий:

Книга 2 - Земля:
Эпизод 01 Состояние Аватара/The Avatar State (17 марта 2006)
Эпизод 02 Пещера двух влюблённых/The Cave of Two Lovers 24 марта 2006)
Эпизод 03 Возвращение в Омашу/Return to Omashu (7 апреля 2006)
Эпизод 04 Болото/The Swamp (14 апреля 2006)
Эпизод 05 День Аватара/Avatar Day (28 апреля 2006)
Эпизод 06 Слепой бандит/The Blind Bandit (5 мая 2006)
Эпизод 07 Одинокий Зуко/Zuko Alone (12 мая 2006)
Эпизод 08 Погоня/The Chase (26 мая 2006)
Эпизод 09 Неприятная работа/Bitter Work (2 июня 2006)
Эпизод 10 Библиотека/The Library (14 июля 2006)
Эпизод 11 Пустыня/The Desert (14 июля 2006)
Эпизод 12 Змеиный перевал/The Serpent's Pass (15 сентября 2006)
Эпизод 13 Бур/The Drill (15 сентября 2006)
Эпизод 14 Город стен и секретов/City of Walls and Secrets (22 сентября 2006)
Эпизод 15 Истории из Ба Синг Се/The Tales of Ba Sing Se (29 сентября 2006)
Эпизод 16 Приключения Аппы/Appa's Lost Days (13 октября 2006)
Эпизод 17 Озеро Лаогай/Lake Laogai (3 ноября 2006)
Эпизод 18 Царь Земли/The Earth King (17 ноября 2006)
Эпизод 19 Гуру/The Guru (1 декабря 2006)
Эпизод 20 Перекресток судьбы/The Crossroads of Destiny (1 декабря 2006)
Скриншоты:
Яндекс.Метрика
Рейтинг@Mail.ru