Малышарики / Сезон 1 / Серии 1-34 из 100 (Марина Мошкова) [2015, Обучающий мультфильм, анимация, семейный, WEB-DLRip, 1080р]

 

Создавать темы 05-Июл-2016 03:57

-Малышарики / Серия 1 по 34 / Развивающие мультики для самых маленьких "Малышарики".-- Производство: Россия
Режиссер: Марина Мошкова
Жанр: анимация, семейный
Год выпуска: 2015 г.
Продолжительность: 00:05:00Перевод: Отсутствует
Перевод 2: Отсутствует
Перевод 3: Отсутствует
Роли озвучивали: ведущий режиссер: Марина Мошкова
режиссеры: Ольга Полиектова, Татьяна Полиектова
автор сценария: Иордан Кефалиди
редактор проекта: Мария Большакова-Описание: Мир Малышариков – это простой и понятный мир увлечений, радости и заботы. В нем живут Малышарики, каждый из которых уже имеет свой особенный характер. Они всегда готовы придумать новую игру или поделиться своими знаниями и умениями. Малышарики говорят с малышами на одном удивительном – детском языке, поэтому всегда близки и понятны.-Качество видео: WEB-DL
Контейнер: MP4
Стандарт разрешения: 1080p
Видео кодек: MPEG4 AVC
Аудио кодек: AAC
Видео: 1920x1080 (16:9), 25 fps, AVC MPEG-4 1654 Kbps CBR
Аудио: 44.1 KHz, AAC, 2ch, 126 Kbps CBR
Cубтитры: отсутствуют

Название серий

Малышарики - 01 серия - Качели.mp4
Малышарики - 02 серия - Прогулка.mp4
Малышарики - 03 серия - Фломастеры.mp4
Малышарики - 04 серия - Ракета.mp4
Малышарики - 05 серия - Следы.mp4
Малышарики - 06 серия - Башня.mp4
Малышарики - 07 серия - Красная шапочка.mp4
Малышарики - 08 серия - Солнышко.mp4
Малышарики - 09 серия - Ёлка.mp4
Малышарики - 10 серия - Попрыгушки.mp4
Малышарики - 11 серия - Ручейки.mp4
Малышарики - 12 серия - Машинка.mp4
Малышарики - 13 серия - Прятки.mp4
Малышарики - 14 серия - Домики.mp4
Малышарики - 15 серия - Ведёрко.mp4
Малышарики - 16 серия - На площадке.mp4
Малышарики - 17 серия - Самокат.mp4
Малышарики - 18 серия - Футбол.mp4
Малышарики - 19 серия - Спокойной ночи.mp4
Малышарики - 20 серия - Шмяк.mp4
Малышарики - 21 серия - Цветок.mp4
Малышарики - 22 серия - Просыпайся.mp4
Малышарики - 23 серия - Самолётик.mp4
Малышарики - 24 серия - Лошадка.mp4
Малышарики - 25 серия - Рыбалка.mp4
Малышарики - 26 серия - Мозаика.mp4
Малышарики - 27 серия - Ушки.mp4
Малышарики - 28 серия - Подружки.mp4
Малышарики - 29 серия - Обруч.mp4
Малышарики - 30 серия - Стёклышко.mp4
Малышарики - 31 серия - Зеленука.mp4
Малышарики - 32 серия - Бусики.mp4
Малышарики - 33 серия - Сказочка.mp4
Малышарики - 34 серия - Сладкоежки.mp4
-

Media Info

General
Complete name : S:\video\малышарики\Малышарики - 17 серия - Самокат.mp4
Format : MPEG-4
Format profile : Base Media
Codec ID : isom (isom/iso2/avc1/mp41)
File size : 64.4 MiB
Duration : 5mn 12s
Overall bit rate : 1 731 Kbps
Writing application : Lavf57.2.100Video
ID : 1
Format : AVC
Format/Info : Advanced Video Codec
Format profile : [email protected]/* */
Format settings, CABAC : Yes
Format settings, ReFrames : 3 frames
Codec ID : avc1
Codec ID/Info : Advanced Video Coding
Duration : 5mn 12s
Bit rate : 1 599 Kbps
Width : 1 920 pixels
Height : 1 080 pixels
Display aspect ratio : 16:9
Frame rate mode : Constant
Frame rate : 25.000 fps
Color space : YUV
Chroma subsampling : 4:2:0
Bit depth : 8 bits
Scan type : Progressive
Bits/(Pixel*Frame) : 0.031
Stream size : 59.5 MiB (92%)
Color range : Limited
Color primaries : BT.709
Transfer characteristics : BT.709
Matrix coefficients : BT.709Audio
ID : 2
Format : AAC
Format/Info : Advanced Audio Codec
Format profile : LC
Codec ID : 40
Duration : 5mn 12s
Bit rate mode : Constant
Bit rate : 126 Kbps
Channel(s) : 2 channels
Channel positions : Front: L R
Sampling rate : 44.1 KHz
Frame rate : 43.066 fps (1024 spf)
Compression mode : Lossy
Stream size : 4.67 MiB (7%)
Default : Yes
Alternate group : 1

Скриншот c названием мультфильма

Скриншоты

Яндекс.Метрика
Рейтинг@Mail.ru