Ферма Кроухэвен / Ферма "Воронье Гнездо" / Ферма "Небеса Воронов" / Crowhaven Farm (Уолтер Громан / Walter Grauman) [1970 г., ужасы, VHSRip] MVO

 

Создавать темы 05-Июл-2016 03:42

-Ферма Кроухэвен / Ферма "Воронье Гнездо" / Ферма "Небеса Воронов" / Crowhaven Farm-- Производство: США, Aaron Spelling Productions Inc.
Год выпуска: 1970 г.
Жанр: ужасы
Продолжительность: 01:14:05Мировая премьера: 24 ноября 1970
Перевод: Профессиональный (многоголосый, закадровый) [ТПО "Кабельное телевидение" 1992]
Режиссер: Уолтер Громан / Walter Grauman-В ролях: Хоуп Лэнг, Пол Бурк, Ллойд Бокнер, Джон Кэрредин, Сирил Делеванти, Милтон Зельцер, Патриция Бэрри, Синди Эйлбэхер, Вудроу Парфри, Джун Дэйтон, ...-Описание: К началу 1970-х режиссёр Вальтер Грауман был уже далеко не новичок в жанре ужасов и мистики, а также частенько снимал фильмы для ТВ. 1970-й год ознаменовался ещё одним его творением в жанре страшного кино под незамысловатым названием «Ферма Кроухэвен», который покрутили по ТВ, позже выпустили на кассетах и благополучно забыли. А ведь зря, ибо перед нами пусть и снятая для ТВ лента, но очень интересная, загадочная и достаточно оригинальная.
Режиссёр и его команда подарили нам очень хороший мистический фильм, который в первую очередь может похвастаться отличной атмосферой загадочности и древности, окутывающей главных героев с самого момента их приезда в Кроухэвен. Действие по большей части происходит в особняке или же в ночное время, а дневные сцены также смотрятся довольно мрачно. Большую лепту в создание такой интересной и загадочной атмосферы, а также напряженности в немногочисленных сценах действия внесла замечательная симфоническая музыка Роберта Драснина, которая очень хорошо подчеркивает пиковые моменты фильма своими тревожными мелодиями.
Главную роль в фильме исполнила актриса Хоуп Лэнг, которая позже засветилась в культовом фильме Майкла Уиннера «Жажда смерти» (Death wish, 1974). Она отлично передает страхи и безумие, охватывающее главную героиню, а также её попытки спасти свою жизнь и жизни её близких. Её партнерами по съёмочной площадке был ветеран американского кино Пол Бьёрк и хорошо известный любителям ужасов и уже стареющий Джон Кэррадайн. У последнего не так много экранного времени, но его герой занимает достаточно важное место в сюжете этой ленты и временами именно он заставляет зрителя подозревать, сомневаться и строить догадки…
«Ферма Кроухэвен» - ещё один забытый отличный фильм, который будет очень приятно посмотреть глубокой ночью при выключенном свете. Интересный сюжет, мрачная, загадочная атмосфера и саундтрек, хорошая актёрская игра и грамотная постановка делают его отличным способом скоротать время и получить удовольствие от просмотра. До шедевра он, конечно же, не дотягивает, но это определенно крепкая и добротная работа, за просмотр которой могут смело браться любители мистики и сверхъестественного.-
Качество видео: VHSRip
Контейнер: AVI
Видео кодек: XviD
Аудио кодек: AC3
Видео: 640x480 (1.33:1), 23.976 fps, XviD build 73 ~2062 kbps avg, 0.28 bit/pixel
Аудио: 48 kHz, AC3 Dolby Digital, 2/0 (L,R) ch, ~192 kbps
Cубтитры: отсутствуют

Рецензия

..."Ну, что Вам сказать?!. Вы большой молодец, что Ваше Хобби, Увлечение - доставляют столько радости коллекционерам и ностальгирующим!!! Спасибо Вам большое! ...а с переводом - не первый раз: до убийства VHS - предпринимателей энное количество кассет разошлось по рукам. Многие забыли о них или выбросили, когда появились PC и DVD, ... и прогадали: большинство старых шедевров не воспроизводились на дисках... Единицы осели по сейфам коллекционеров. Вам надо памятник, при жизни, поставить! Я сам на старости лет решил поддержать один погибающий, но гордый сайт, и, признаюсь: Ваши раздачи (ну не все) там пользуются успехом... За наши увлечения!!! ...это VHS в достойном качестве..."...

Media Info

Общее
Полное имя : J:\Ферма Кроухэвен\Ferma Krouheven.(Crowhaven Farm).[pirat.ca].avi
Формат : AVI
Формат/Информация : Audio Video Interleave
Размер файла : 1,17 Гбайт
Продолжительность : 1 ч. 14 м.
Общий поток : 2264 Кбит/сек
Название фильма : Ferma Krouheven.(Crowhaven Farm).[pirat.ca]
Программа кодирования : VirtualDubMod 1.5.10.3 | www.virtualdub-fr.org || (build 2550/release)Видео
Идентификатор : 0
Формат : MPEG-4 Visual
Профиль формата : Advanced [email protected]/* */
Параметр BVOP формата : 2
Параметр QPel формата : Нет
Параметр GMC формата : Без точки перехода
Параметр матрицы формата : Выборочная
Идентификатор кодека : XVID
Идентификатор кодека/Подсказка : XviD
Продолжительность : 1 ч. 14 м.
Битрейт : 2063 Кбит/сек
Ширина : 640 пикселей
Высота : 480 пикселей
Соотношение сторон : 4:3
Частота кадров : 23,976 (24000/1001) кадра/сек
Цветовое пространство : YUV
Субдискретизация насыщенности : 4:2:0
Битовая глубина : 8 бит
Тип развёртки : Прогрессивная
Метод сжатия : С потерями
Бит/(Пиксели*Кадры) : 0.280
Размер потока : 1,07 Гбайт (91%)
Библиотека кодирования : XviD 73Аудио
Идентификатор : 1
Формат : AC-3
Формат/Информация : Audio Coding 3
Расширение режима : CM (complete main)
Параметр Endianness формата : Big
Идентификатор кодека : 2000
Продолжительность : 1 ч. 14 м.
Вид битрейта : Постоянный
Битрейт : 192 Кбит/сек
Каналы : 2 канала
Расположение каналов : Front: L R
Частота : 48,0 КГц
Частота кадров : 31,250 кадров/сек (1536 spf)
Метод сжатия : С потерями
Размер потока : 102 Мбайт (8%)
Выравнивание : Разделение по промежуткам
Продолжительность промежутка : 42 мс. (1,00 видеокадр)
Время предзагрузки промежутка : 500 мс.

Скриншот c названием фильма

Скриншоты

-Трейлер
Яндекс.Метрика
Рейтинг@Mail.ru