[ Сегодня на трекере фрилич! Идет свободное скачивание без начисления Download ]

Ожидается мистраль / Avis de mistral (Розлин Бош / Roselyne Bosch) [2014 г., Весёлый семейный фильм, BDRip-AVC, 720p] MVO [1 канал] + Sub (Rus)

 

Создавать темы 05-Июл-2016 03:39

-Ожидается мистраль / Avis de mistral-- Производство: Франция, Canal+ [fr], Gaumont, ...
Год выпуска: 2014 г.
Жанр: Весёлый семейный фильм
Продолжительность: 01:43:54Мировая премьера: 2 апреля 2014
Перевод: Профессиональный (многоголосый, закадровый) [1 канал]
Режиссер: Розлин Бош / Roselyne Bosch-В ролях: Жан Рено, Анна Гальена, Хлоя Жуанне, Хьюго Дессиойкс, Ор Атика, Лукас Пеллишер, Том Либ, Жан-Мишель Нуари, Юг Офрей, Шарлотт де Тюркейм-Описание: Лиа, Адриен и их от рождения глухой младший брат Тео отправляются на лето в Прованс к своему дедушке Полю, которого они никогда не видели раньше из-за старой семейной ссоры. Это совсем не то, о чём они мечтали. Особенно после того как их отец объявил вчера о том, что уходит из дома.
Менее чем через двадцать четыре часа произойдёт столкновение разных поколений между подростками и дедушкой, которого они считали ненормальным. И ошибались. Бурное прошлое выйдет наружу, и все увидят Поля далёких 70-х. В течение одного лета обоим поколениям предстоит познать и понять друг друга.-
Качество видео: BDRip-AVC
Контейнер: MKV
Стандарт разрешения: 720p
Видео кодек: MPEG4 AVC
Аудио кодек: AC3
Видео: 5250 Кбит/с, 1280x536, 24,000 кадра/сек
Аудио: AС3, 2 ch, 192 Кбит/с, 48,0 КГц
Cубтитры: русские
Формат субтитров: softsub (SRT)
Доп. информация о субтитрах: включаемые

Рецензия

Самое лучшее лето…Душевное кино о семейных ценностях.Фильм рассказывает историю одного лета, проведенного внуками у дедушки в Провансе, которого они никогда не видели раньше из-за старой семейной ссоры…Перед нами предстает жизнь во французской деревушке, во всей красе, тихая спокойная и размеренная, где жители никуда не торопятся, а наслаждаются каждым днем, с ее местными праздниками, песнями под гитару и колоритными обитателями.Кино получилось добрым и жизненным, легким и душевным, светлым и приятным, рассказывающее легко о простых жизненных вещах, жизни в деревне, семейных ценностях, недопонимании между разными поколениями.Также стоит отметить замечательных актеров, удачно вписавшихся в этот фильм — Жан Рено, Анна Гальена, Ор Атика и приятный саундтрек со знакомыми мелодиями, ласкающими слух.Рекомендую к просмотру.

Media Info

Общее
Уникальный идентификатор : 184213670691958024840894672789988940759 (0x8A964330421F8F798D990FBFE29F9BD7)
Полное имя : J:\Совет мистраля\Avis De Mistral.2014.P.720p.BDRip-AVC.[pirat.ca].mkv
Формат : Matroska
Версия формата : Version 2
Размер файла : 3,94 Гбайт
Продолжительность : 1 ч. 43 м.
Общий поток : 5435 Кбит/сек
Дата кодирования : UTC 2016-07-04 12:05:37
Программа кодирования : mkvmerge v5.3.0 ('I could have danced') built on Feb 9 2012 10:38:07
Библиотека кодирования : libebml v1.2.3 + libmatroska v1.3.0Видео
Идентификатор : 1
Формат : AVC
Формат/Информация : Advanced Video Codec
Профиль формата : [email protected]/* */
Параметр CABAC формата : Да
Параметр ReFrames формата : 5 кадров
Идентификатор кодека : V_MPEG4/ISO/AVC
Продолжительность : 1 ч. 43 м.
Битрейт : 5250 Кбит/сек
Ширина : 1280 пикселей
Высота : 536 пикселей
Соотношение сторон : 2,40:1
Режим частоты кадров : Постоянный
Частота кадров : 24,000 кадра/сек
Цветовое пространство : YUV
Субдискретизация насыщенности : 4:2:0
Битовая глубина : 8 бит
Тип развёртки : Прогрессивная
Бит/(Пиксели*Кадры) : 0.319
Размер потока : 3,73 Гбайт (94%)
Библиотека кодирования : x264 core 142 r2453 ea0ca51
Настройки программы : cabac=1 / ref=5 / deblock=1:0:0 / analyse=0x3:0x113 / me=umh / subme=8 / psy=1 / psy_rd=1.00:0.00 / mixed_ref=1 / me_range=16 / chroma_me=1 / trellis=1 / 8x8dct=1 / cqm=0 / deadzone=21,11 / fast_pskip=1 / chroma_qp_offset=-2 / threads=12 / lookahead_threads=2 / sliced_threads=0 / nr=0 / decimate=1 / interlaced=0 / bluray_compat=0 / constrained_intra=0 / bframes=3 / b_pyramid=2 / b_adapt=2 / b_bias=0 / direct=3 / weightb=1 / open_gop=0 / weightp=2 / keyint=240 / keyint_min=24 / scenecut=40 / intra_refresh=0 / rc_lookahead=50 / rc=2pass / mbtree=1 / bitrate=5250 / ratetol=1.0 / qcomp=0.60 / qpmin=0 / qpmax=69 / qpstep=4 / cplxblur=20.0 / qblur=0.5 / ip_ratio=1.40 / aq=1:1.00
Язык : French
Default : Да
Forced : НетАудио
Идентификатор : 2
Формат : AC-3
Формат/Информация : Audio Coding 3
Расширение режима : CM (complete main)
Параметр Endianness формата : Big
Идентификатор кодека : A_AC3
Продолжительность : 1 ч. 43 м.
Вид битрейта : Постоянный
Битрейт : 192 Кбит/сек
Каналы : 2 канала
Расположение каналов : Front: L R
Частота : 48,0 КГц
Частота кадров : 31,250 кадров/сек (1536 spf)
Метод сжатия : С потерями
Размер потока : 143 Мбайт (4%)
Язык : Russian
Default : Да
Forced : НетТекст
Идентификатор : 3
Формат : UTF-8
Идентификатор кодека : S_TEXT/UTF8
Идентификатор кодека/Информация : UTF-8 Plain Text
Язык : Russian
Default : Нет
Forced : НетМеню
00:00:00.000 : en:00:00:00.000
00:08:25.000 : en:00:08:25.000
00:17:56.875 : en:00:17:56.875
00:26:40.333 : en:00:26:40.333
00:35:41.000 : en:00:35:41.000
00:43:50.917 : en:00:43:50.917
00:53:25.333 : en:00:53:25.333
01:02:54.708 : en:01:02:54.708
01:11:37.583 : en:01:11:37.583
01:20:20.792 : en:01:20:20.792
01:28:46.583 : en:01:28:46.583
01:36:24.000 : en:01:36:24.000

Скриншот c названием фильма

Скриншоты

-Трейлер
Яндекс.Метрика
Рейтинг@Mail.ru