Черный тюльпан / La tulipe noire (Кристиан-Жак / Christian-Jaque) [1963 г., боевик, комедия, приключения, BDRip-AVC, 720p] Dub ["Союзмультфильм"]

 

Создавать темы 05-Июл-2016 03:33

-Черный тюльпан / La tulipe noire-- Производство: Франция, Италия, Испания, Ágata Films S.A., Flora Film S.r.l., Méditerranée Cinéma, Mizar Films
Год выпуска: 1963 г.
Жанр: боевик, комедия, приключения
Продолжительность: 01:53:29Мировая премьера: 28 февраля 1964
Дата выхода DVD: 20 декабря 2012, «Cinema Prestige»
Перевод: Профессиональный (полное дублирование) ["Союзмультфильм"]
Режиссер: Кристиан-Жак / Christian-Jaque-В ролях: Ален Делон (Julien de Saint Preux / Guillaume de Saint Preux), Вирна Лизи (Caroline «Caro» Plantin), Адольфо Марсильяч (Baron La Mouche), Доун Аддамс (La marquise Catherine de Vigogne), Аким Тамирофф (Marquis de Vigogne), Лаура Валенсуэла (Lisette), Жорж Риго (Intendant General / Chief of Police), Франсис Бланш (Plantin), Хосе Хаспе (Brignon), Перла Кристаль, Хосе Луис Пеликена, Энрике Авила (Villager)
Дублёры: Василий Лановой (Julien de Saint Preux / Guillaume de Saint Preux), Тамара Сёмина (Caroline «Caro» Plantin), Всеволод Ларионов (Baron La Mouche), Серафима Холина (La marquise Catherine de Vigogne), Евгений Весник (Marquis de Vigogne), Семён Самодур, Владимир Кенигсон (Prince Alexandre de Grasillach de Morvan Lobo)-Описание: Фильм повествует о событиях перед Французской революцией, а именно- июнь 1789 года. Именно тогда одну из провинций Франции, а лучше сказать правительство этой провинции, беспокоит таинственный Черный Тюльпан. Он грабит дворян и дарит надежду беднякам, воплощая собой свободу. Но в миру Черный Тюльпан — Гийом де Санпре, дворянин и известный развратник, покоривший сердце каждой аристократки. И никому неизвестно, что у него есть брат-близнец — Жюльен. Прямая противоположность брата — наивный, романтичный, местами неуклюжий. И все было так, пока не наступил роковой момент: клейменный шрамом Гийом вынужден скрываться, а его место в мир блеска и роскоши должен занять невинный Жюльен. И теперь вся судьба третьего сословия в руках этого человека...-
Качество видео: BDRip-AVC
Контейнер: MKV
Стандарт разрешения: 720p
Видео кодек: MPEG4 AVC
Аудио кодек: AC3
Видео: 1024x456 (2.25:1), 4257 kbps, 24 fps, 0,380 bpp
Аудио: AC3 / 2.0 / 48 kHz / 192 kbps
Cубтитры: отсутствуют

Доп. информация

Фильм занимает 20-е место по посещаемости среди зарубежных лент в советском кинопрокате.
Во время повторного выпуска в советский кинопрокат в 1984 году этот фильм посмотрели 28,9 млн. зрителей при тираже 820 копий.
Общая аудитория за два выпуска в прокат СССР составила 76,7 млн. человек.

Рецензия

Гийом и Жюльен.Сразу, без излишних предисловий заявляю — великий фильм, вечный фильм. Любимый фильм. Посмотрев первый раз-моментально отмотала назад и снова посмотрела. И посмотрю еще и еще и еще…Фильм повествует о событиях перед Французской революцией, а именно июнь 1789 года. Именно тогда одну из провинций Франции, а лучше сказать правительство этой провинции, беспокоит таинственный Черный Тюльпан. Он грабит дворян и дарит надежду беднякам, воплощая собой свободу. Но в миру Черный Тюльпан — Гийом де Санпре, дворянин и известный развратник, покоривший сердце каждой аристократки. И никому неизвестно, что у него есть брат-близнец — Жюльен. Прямая противоположность брата — наивный, романтичный, местами неуклюжий. И все было так, пока не наступил роковой момент: клейменный шрамом Гийом вынужден скрываться, а его место в мир блеска и роскоши должен занять невинный Жюльен. И теперь вся судьба третьего сословия в руках этого человека…Ален Делон просто шикарен в роли обоих братьев. Один и тот же человек, но разные люди. Циничный и грешный Гийом. Стоит на него взглянуть и видна его самоуверенность, порочность, нрав… И милый Жюльен, который учится быть своим братом и национальным героем. Создается впечатление, что это игра двух людей, а не одного.Отдельная черта фильма-юмор. Каждый диалог можно резать на шутки, афоризмы и анекдоты. Так я не смеялась никогда! И это не передашь на бумаге. Это надо видеть. Это надо почувствовать. За что, кстати, отдельное спасибо советскому дубляжу — это просто выше всех похвал.- Что бы Вы сделали с князем, командующим полком?- Я бы его пом, а потом пом! А если нужно, то еще и пом, пом, пом!Храбрость, самоотверженность, геройство… Все как в классике костюмированных фильмов. Схватки на шпагах, погони, а еще и прекрасные виды гор и водопадов. Что еще нужно хорошему фильму?- Хватит пить, смерть превыше всего. Я долго жил на этом свете… Прощай мой друг, прощай, мой дорогой Плантенчик… (целует своего предполагаемого палача)- Куда же вы идете, дружище?- (беря полено) На эшафот… Хочу умереть, как Мария Стюарт. Я взял свою плаху, не забудь прихватить топор.Это просто надо видеть.10 из 10P.S. Кстати, не знаю почему, но в титрах писали «по мотивам А. Дюма» Но «Черный Тюльпан» А. Дюма совсем другая история…

Media Info

Общее
Уникальный идентификатор : 174973355879024302616810490999710950997 (0x83A2A47E88563A9084A0A61CFCCC2655)
Полное имя : D:\Черный тюльпан\Chornyj Tulpan.BDRip-AVC.[pirat.ca].mkv
Формат : Matroska
Версия формата : Version 2
Размер файла : 3,60 Гбайт
Продолжительность : 1 ч. 53 м.
Общий поток : 4547 Кбит/сек
Дата кодирования : UTC 2016-07-04 12:42:50
Программа кодирования : mkvmerge v5.3.0 ('I could have danced') built on Feb 9 2012 10:38:07
Библиотека кодирования : libebml v1.2.3 + libmatroska v1.3.0Видео
Идентификатор : 1
Формат : AVC
Формат/Информация : Advanced Video Codec
Профиль формата : [email protected]/* */
Параметр CABAC формата : Да
Параметр ReFrames формата : 10 кадров
Идентификатор кодека : V_MPEG4/ISO/AVC
Продолжительность : 1 ч. 53 м.
Битрейт : 4265 Кбит/сек
Ширина : 1024 пикселя
Высота : 456 пикселей
Соотношение сторон : 2,25:1
Режим частоты кадров : Постоянный
Частота кадров : 24,000 кадра/сек
Цветовое пространство : YUV
Субдискретизация насыщенности : 4:2:0
Битовая глубина : 8 бит
Тип развёртки : Прогрессивная
Бит/(Пиксели*Кадры) : 0.381
Размер потока : 3,38 Гбайт (94%)
Библиотека кодирования : x264 core 146 r2538 121396c
Настройки программы : cabac=1 / ref=10 / deblock=1:-2:-2 / analyse=0x3:0x113 / me=esa / subme=11 / psy=1 / psy_rd=1.00:0.05 / mixed_ref=1 / me_range=24 / chroma_me=1 / trellis=2 / 8x8dct=1 / cqm=0 / deadzone=21,11 / fast_pskip=0 / chroma_qp_offset=-3 / threads=12 / lookahead_threads=3 / sliced_threads=0 / nr=0 / decimate=1 / interlaced=0 / bluray_compat=0 / constrained_intra=0 / bframes=12 / b_pyramid=2 / b_adapt=2 / b_bias=0 / direct=3 / weightb=1 / open_gop=0 / weightp=2 / keyint=240 / keyint_min=24 / scenecut=40 / intra_refresh=0 / rc_lookahead=50 / rc=crf / mbtree=0 / crf=18.0 / qcomp=0.60 / qpmin=0 / qpmax=69 / qpstep=4 / vbv_maxrate=62500 / vbv_bufsize=78125 / crf_max=0.0 / nal_hrd=none / filler=0 / ip_ratio=1.40 / pb_ratio=1.30 / aq=1:1.00
Язык : French
Default : Нет
Forced : НетАудио
Идентификатор : 2
Формат : AC-3
Формат/Информация : Audio Coding 3
Расширение режима : CM (complete main)
Параметр Endianness формата : Big
Идентификатор кодека : A_AC3
Продолжительность : 1 ч. 53 м.
Вид битрейта : Постоянный
Битрейт : 192 Кбит/сек
Каналы : 2 канала
Расположение каналов : Front: L R
Частота : 48,0 КГц
Частота кадров : 31,250 кадров/сек (1536 spf)
Метод сжатия : С потерями
Размер потока : 156 Мбайт (4%)
Заголовок : Дубляж
Язык : Russian
Default : Да
Forced : НетМеню
00:00:00.000 : en:00:00:00.000
00:04:37.082 : en:00:04:37.082
00:11:17.916 : en:00:11:17.916
00:23:11.415 : en:00:23:11.415
00:27:25.000 : en:00:27:25.000
00:33:15.333 : en:00:33:15.333
00:44:07.166 : en:00:44:07.166
00:48:54.541 : en:00:48:54.541
00:59:35.041 : en:00:59:35.041
01:04:40.791 : en:01:04:40.791
01:10:28.291 : en:01:10:28.291
01:18:22.125 : en:01:18:22.125
01:23:20.291 : en:01:23:20.291
01:33:13.082 : en:01:33:13.082
01:41:40.541 : en:01:41:40.541
01:46:42.875 : en:01:46:42.875

Скриншот c названием фильма

Скриншоты

-Трейлер
Яндекс.Метрика
Рейтинг@Mail.ru