[ Сегодня на трекере фрилич! Идет свободное скачивание без начисления Download ]

Оборотень / Горький имбирь / Ginger Snaps (Джон Фоусет / John Fawcett) [2000 г., ужасы, фэнтези, триллер, BDRip] DVO

 

Создавать темы 05-Июл-2016 03:30

-Оборотень / Горький имбирь / Ginger Snaps-- Производство: Канада, США, Canadian Film or Video Production Tax Credit (CPTC), ...
Год выпуска: 2000 г.
Жанр: ужасы, фэнтези, триллер
Продолжительность: 01:48:09Мировая премьера: 1 августа 2000
Перевод: Профессиональный (двухголосый, закадровый) [R5]
Режиссер: Джон Фоусет / John Fawcett-В ролях: Эмили Перкинс (Brigitte «B» Fitzgerald), Кэтрин Изабель (Ginger Fitzgerald), Крис Лемке (Sam), Мими Роджерс (Pamela Fitzgerald), Джесси Мосс (Jason McCardy), Даниэль Хэмптон (Trina Sinclair), Джон Буржуа (Henry Fitzgerald), Питер Келеган (Mr. Wayne), Кристофер Редман (Ben), Джимми МакИннис (Tim), Линдсэй Лиз (Nurse Ferry), Уэнди Фулфорд (Ms. Sykes)-Описание: 16-летняя Джинджер и ее младшая сестра Бриджитт очень любят снимать на видеокамеру «фильмы ужасов», безжалостно расходуя огромное количество красной краски. И вообще развлекаются как только могут.
Однажды во время одной из ночных вылазок на Джинджер нападает какое-то огромное чудовище. Бриджитт помогает скрыть следы укусов от родителей. К удивлению сестер, раны быстро затягиваются. Но когда с Джинджер начинают происходить какие-то странные изменения, девочки понимают, что их проблемы только начинаются...-
Качество видео: BDRip
Контейнер: AVI
Видео кодек: XviD
Аудио кодек: AC3
Видео: 704x400 (1.76:1), 23.976 fps, XviD build 65 ~1534 kbps avg, 0.23 bit/pixel
Аудио: 48 kHz, AC3 Dolby Digital, 3/2 (L,C,R,l,r) + LFE ch, ~384 kbps
Cубтитры: отсутствуют

Доп. информация

Волосы Бриджит на самом деле являются париком, в чем мы можем убедиться в финале картины. Парик сдвигается на глаза, когда Бриджит сбегает по лестнице в поисках Сэма.
Съемки фильма проходили в Канаде в предместьях Торонто и продолжались около 6 недель — с 25 октября по 6 декабря 1999 года.
Идея этого фильма возникла у режиссера Джона Фоусета давно, а первые шаги к ее реализации были сделаны в январе 1995-го. Когда он встретился со сценаристом Карен Уолтон. Картина вышла бы еще в 1998 году, но проблемы с финансированием и организационные неурядицы отодвинули дату выхода фильма еще на два года.

Награды

Сатурн, 2002 год
Победитель (1):
Лучшее DVD-издание

Рецензия

Фильм цепляет.Я восхищаюсь фильмами ужасов, которые, не просто пугаю или вызывают легкое (а может даже и полное) ощущения брезгливости и тошноты, а оставляют свой след в душе. Приятно, когда после просмотра ты обдумываешь то, что увидел, а не лезешь в интернет в поисках чего-нибудь поинтересней. На мой взгляд, «оборотень» из разряда таких фильмов.И пускай образ оборотня похож на резиновую игрушку… это не портит общего впечатления от фильма. Я бы даже сказала, что это некая фишка фильма. Оборотень так же не идеален, как и все в мире двух сестер — подростков.Игре Эмили Перкинс и Кэтрин Изабелль можно ставить смело «отлично»! Их образы не приевшиеся и интересные. Нет ощущения избитости и повторения. Очень интересно развита тема взаимоотношений между сестрами. Такой любви и преданности можно только позавидовать. Стараясь представить себя на их месте, не можешь быть уверен, что ты поступил бы так же. Ведь не всякий смог бы смотреть в родное лицо, которое каждый день меняет свой черты на облик монстра, и при этом не терять в себе силы, чтобы бороться, не убежать с криками о помощи!Я без тени сомнения отметила этот фильм, как лучший про оборотней.Как мне показалось, он основан не на желании показать звериную сущность человека, а отразить человечность в шкуре монстра, показать, на сколько сильными могут быть родственный узы.10 из 10без сомнения!

Media Info

Общее
Полное имя : J:\Оборотень\Oborotenj.(Ginger Snaps).2000.BDRip.[pirat.ca].avi
Формат : AVI
Формат/Информация : Audio Video Interleave
Размер файла : 1,46 Гбайт
Продолжительность : 1 ч. 48 м.
Общий поток : 1928 Кбит/сек
Программа кодирования : VirtualDubMod 1.5.10.3 | www.virtualdub-fr.org || (build 2550/release)Видео
Идентификатор : 0
Формат : MPEG-4 Visual
Профиль формата : Advanced [email protected]/* */
Параметр BVOP формата : 2
Параметр QPel формата : Нет
Параметр GMC формата : Без точки перехода
Параметр матрицы формата : Выборочная
Идентификатор кодека : XVID
Идентификатор кодека/Подсказка : XviD
Продолжительность : 1 ч. 48 м.
Битрейт : 1535 Кбит/сек
Ширина : 704 пикселя
Высота : 400 пикселей
Соотношение сторон : 16:9
Частота кадров : 23,976 (23976/1000) кадра/сек
Цветовое пространство : YUV
Субдискретизация насыщенности : 4:2:0
Битовая глубина : 8 бит
Тип развёртки : Прогрессивная
Метод сжатия : С потерями
Бит/(Пиксели*Кадры) : 0.227
Размер потока : 1,16 Гбайт (80%)
Библиотека кодирования : XviD 65Аудио
Идентификатор : 1
Формат : AC-3
Формат/Информация : Audio Coding 3
Расширение режима : CM (complete main)
Параметр Endianness формата : Big
Идентификатор кодека : 2000
Продолжительность : 1 ч. 48 м.
Вид битрейта : Постоянный
Битрейт : 384 Кбит/сек
Каналы : 6 каналов
Расположение каналов : Front: L C R, Side: L R, LFE
Частота : 48,0 КГц
Частота кадров : 31,250 кадров/сек (1536 spf)
Метод сжатия : С потерями
Размер потока : 297 Мбайт (20%)
Выравнивание : Разделение по промежуткам
Продолжительность промежутка : 42 мс. (1,00 видеокадр)
Время предзагрузки промежутка : 500 мс.

Скриншот c названием фильма

Скриншоты

-Трейлер
Яндекс.Метрика
Рейтинг@Mail.ru