Любовь не по размеру / Un homme à la hauteur (Лоран Тирар / Laurent Tirard) [2016 г., комедия, WEB-DLRip] Dub [iTunes]

 

Создавать темы 05-Июл-2016 03:25

-Любовь не по размеру / Un homme à la hauteur-- Производство: Франция, Canal+ [fr], ... (12 студий)
Год выпуска: 2016 г.
Жанр: комедия
Продолжительность: 01:34:00Мировая премьера: 25 апреля 2016
Российская премьера: 12 мая 2016, «Вольга»
Перевод: Профессиональный (полное дублирование) [iTunes]
Режиссер: Лоран Тирар / Laurent Tirard-В ролях: Жан Дюжарден, Виржини Эфира, Седрик Кан, Стефани Папаниан, Сезар Домбой, Эдмон Франчи, Мануэлль Гайар, Бруно Гомила, Камилль Дамур, Франсуа-Доминик Блен-Описание: Потерянный мобильник оборачивается для Дианы знакомством с поистине невероятным человеком по имени Александр. Он умен, неутомим и чертовски обаятелен. У него замечательное чувство юмора и, кажется, нет недостатков. Кроме одного… Его рост — чуть больше метра. Это небольшое препятствие оказывается источником огромных проблем и множества неудобных и смешных ситуаций для Дианы. Но настоящая любовь может победить всё, если, конечно, это очень большая любовь.-
Качество видео: WEB-DLRip
Контейнер: AVI
Видео кодек: XviD
Аудио кодек: AC3
Видео: 720x304 (2.37:1), 25 fps, XviD build 73 ~1815 kbps avg, 0.33 bit/pixel
Аудио: 48 kHz, AC3 Dolby Digital, 3/2 (L,C,R,l,r) + LFE ch, ~384 kbps
Cубтитры: отсутствуют

Рецензия

Блестящий творческий шедевр.В наше время картины начинают учить нас толерантности и тому, что мир удивителен и разнообразен.Почти каждый уважающий себя режиссёр обращает внимание хотя бы в одной из своих картин на любовь без предрассудков. Отбросив все мыслимые и немыслимые шаблоны.Я смеялся вместе с героями, я улыбался наблюдая за истинной женщиной, за её походкой и улыбкой. Я плакал вместе с Дианой. А таких моментов было достаточно. Также мне импонировал главный герой — Александр (Жан Дюжарден). Когда я посмотрел после фильма какой у него рост, оказалось, что он обладатель обычного человеческого роста. Зато как искусно все снято. Я каждую минуту думал и верил, что актёры именно такие, какие они на широком экране.Режиссёру удалось добиться классических эмоций от своих зрителей. Это конечно смех в зале, он был по большей части во время просмотра, волнительная тишина (это когда даже хруст чипсов или попкорна останавливается) и конечно ликующая тихая радость, когда ты входишь в некую фазу эмоционального катарсиса, некой эйфории. После например волнительно грустных моментов, происходящих с нашими героями.8 из 10

Media Info

Общее
Полное имя : J:\Любовь не по размеру\Lubovj ne po razmeru.2016.D.[pirat.ca].avi
Формат : AVI
Формат/Информация : Audio Video Interleave
Размер файла : 1,45 Гбайт
Продолжительность : 1 ч. 34 м.
Общий поток : 2210 Кбит/сек
Название фильма : Lubovj ne po razmeru.2016.D.[pirat.ca]
Программа кодирования : VirtualDubMod 1.5.10.3 | www.virtualdub-fr.org || (build 2550/release)Видео
Идентификатор : 0
Формат : MPEG-4 Visual
Профиль формата : Advanced [email protected]/* */
Параметр BVOP формата : 1
Параметр QPel формата : Нет
Параметр GMC формата : Без точки перехода
Параметр матрицы формата : Выборочная
Идентификатор кодека : XVID
Идентификатор кодека/Подсказка : XviD
Продолжительность : 1 ч. 34 м.
Битрейт : 1816 Кбит/сек
Ширина : 720 пикселей
Высота : 304 пикселя
Соотношение сторон : 2,35:1
Частота кадров : 25,000 кадров/сек
Цветовое пространство : YUV
Субдискретизация насыщенности : 4:2:0
Битовая глубина : 8 бит
Тип развёртки : Прогрессивная
Метод сжатия : С потерями
Бит/(Пиксели*Кадры) : 0.332
Размер потока : 1,19 Гбайт (82%)
Библиотека кодирования : XviD 73Аудио
Идентификатор : 1
Формат : AC-3
Формат/Информация : Audio Coding 3
Расширение режима : CM (complete main)
Параметр Endianness формата : Big
Идентификатор кодека : 2000
Продолжительность : 1 ч. 34 м.
Вид битрейта : Постоянный
Битрейт : 384 Кбит/сек
Каналы : 6 каналов
Расположение каналов : Front: L C R, Side: L R, LFE
Частота : 48,0 КГц
Частота кадров : 31,250 кадров/сек (1536 spf)
Метод сжатия : С потерями
Размер потока : 258 Мбайт (17%)
Выравнивание : Разделение по промежуткам
Продолжительность промежутка : 40 мс. (1,00 видеокадр)
Время предзагрузки промежутка : 500 мс.

Скриншот c названием фильма

Скриншоты

-Трейлер
Яндекс.Метрика
Рейтинг@Mail.ru