Дорогая Элеонора / Dear Eleanor (Кевин Коннолли | Kevin Connolly) [2016 г., драма, комедия, приключения, семейный, история, WEB-DL, 720p] MVO

 

Создавать темы 05-Июл-2016 03:22

-Дорогая Элеонора / Dear Eleanor-- Производство: США, Nine Nights, ...
Год выпуска: 2016 г.
Жанр: драма, комедия, приключения, семейный, история
Продолжительность: 01:29:31Мировая премьера: 5 июля 2016
Перевод: Профессиональный (многоголосый, закадровый) [iTunes]
Режиссер: Кевин Коннолли | Kevin Connolly-В ролях: Изабель Фурман, Лиана Либерато, Джессика Альба, Джош Лукас, Люк Уилсон, Клер ван дер Бом, Айони Скай, Патрик Шварценеггер, Джоэл Кортни, Пол Йоханссон-Описание: Две молодых девушки путешествуют по США в 1962 году, во время хаоса кубинского ракетного кризиса, в поисках Элеоноры Рузвельт.-
Качество видео: WEB-DL
Контейнер: MKV
Стандарт разрешения: 720p
Видео кодек: MPEG4 AVC
Аудио кодек: AC3
Видео: 3868 kb/s, 1280x532, 23,976 fps
Аудио: AC3, 384 Kb/s, 6 ch, 48,0 kHz
Cубтитры: отсутствуют

Media Info

Общее
Уникальный идентификатор : 233918168182126373127196852300482928550 (0xAFFB001E658D7102840095F56B3CDFA6)
Полное имя : J:\Дорогая Элеонора\Dorogay Eleonora.2015.P.720p.WEB-DL.AVC.[pirat.ca].mkv
Формат : Matroska
Версия формата : Version 2
Размер файла : 2,71 Гбайт
Продолжительность : 1 ч. 29 м.
Общий поток : 4338 Кбит/сек
Дата кодирования : UTC 2016-07-04 15:18:56
Программа кодирования : mkvmerge v5.3.0 ('I could have danced') built on Feb 9 2012 10:38:07
Библиотека кодирования : libebml v1.2.3 + libmatroska v1.3.0Видео
Идентификатор : 1
Формат : AVC
Формат/Информация : Advanced Video Codec
Профиль формата : [email protected]/* */
Параметр CABAC формата : Нет
Параметр ReFrames формата : 2 кадра
Идентификатор кодека : V_MPEG4/ISO/AVC
Продолжительность : 1 ч. 29 м.
Битрейт : 3868 Кбит/сек
Ширина : 1280 пикселей
Высота : 532 пикселя
Соотношение сторон : 2,40:1
Режим частоты кадров : Постоянный
Частота кадров : 23,976 кадра/сек
Цветовое пространство : YUV
Субдискретизация насыщенности : 4:2:0
Битовая глубина : 8 бит
Тип развёртки : Прогрессивная
Бит/(Пиксели*Кадры) : 0.237
Размер потока : 2,42 Гбайт (89%)
Язык : English
Default : Да
Forced : Нет
Цветовой диапазон : Limited
Основные цвета : BT.709
Характеристики трансфера : BT.709
Коэффициенты матрицы : BT.709Аудио
Идентификатор : 2
Формат : AC-3
Формат/Информация : Audio Coding 3
Расширение режима : CM (complete main)
Параметр Endianness формата : Big
Идентификатор кодека : A_AC3
Продолжительность : 1 ч. 29 м.
Вид битрейта : Постоянный
Битрейт : 384 Кбит/сек
Каналы : 6 каналов
Расположение каналов : Front: L C R, Side: L R, LFE
Частота : 48,0 КГц
Частота кадров : 31,250 кадров/сек (1536 spf)
Метод сжатия : С потерями
Размер потока : 246 Мбайт (9%)
Язык : Russian
Default : Да
Forced : НетМеню
00:00:00.000 : en:1
00:05:41.007 : en:2
00:12:06.558 : en:3
00:16:03.001 : en:4
00:19:23.992 : en:5
00:25:31.067 : en:6
00:32:05.752 : en:7
00:38:48.154 : en:8
00:45:34.226 : en:9
00:50:46.829 : en:10
00:57:15.843 : en:11
01:01:53.703 : en:12
01:06:47.288 : en:13
01:10:33.973 : en:14
01:15:55.961 : en:15
01:22:41.365 : en:16

Скриншот c названием фильма

Скриншоты

-Трейлер
Яндекс.Метрика
Рейтинг@Mail.ru