Назначена награда (Серии 1-4 из 4) [2014 г., криминал, комедия, SATRip]

 

Создавать темы 01-Янв-2014 09:14

-Назначена награда--(мини-сериал) Производство: Россия
По сценарию: Геннадия Казачкова
Жанр: криминал, комедия
Год выпуска: 2014 г.
Продолжительность: 03:00:37
В ролях: Наталья Дворецкая, Иван Бровин, Егор Бакулин, Валерий Кухарешин, Сергей Селин, Алексей Нилов, Евгений Сидихин, Сергей Воробьёв, Андрей Ургант, Денис Старков-Описание: Паша Гайтан и Олег Лялякин — рядовые сотрудниками ППС — мечтают стать настоящими «охотниками за головами» и самостоятельно бороться с преступниками, особенно за приличное вознаграждение. Наступает день, когда сама судьба вынуждает их заняться этим промыслом: горе-друзей с треском выгоняют из полиции…
Невероятные и опасные приключения начинаются, когда герои, сами того не подозревая, становятся участниками секретной операции. Теперь они — и мишень для бандитской группировки, и объект разработки у бывших коллег-оперативников. Друзья попадают на передовую криминальных разборок, и это без особого труда может стоить им жизни.-Сэмпл КиноПоиск
Качество видео: SATRip
Контейнер: AVI
Видео кодек: DivX
Аудио кодек: MP3
Видео: MPEG4, DivX 5, 720x448 (1.607), 25.000 fps, 1 501 Kbps (0.186 bit/pixel)
Аудио: Русский, MP3, 48.0 KHz, 2 ch, 128 Kbps, CBR
Cубтитры: отсутствуют

Media Info

General
Complete name : E:\КИНО\ОТЕЧЕСТВЕННЫЕ\СЕРИАЛЫ\Naznachena.nagrada.SATRip\Naznachena.nagrada.01.SATRip.avi
Format : AVI
Format/Info : Audio Video Interleave
File size : 524 MiB
Duration : 44mn 43s
Overall bit rate : 1 638 Kbps
Writing library : VirtualDub build 32842/release
Video
ID : 0
Format : MPEG-4 Visual
Format settings, BVOP : Yes
Format settings, QPel : No
Format settings, GMC : No warppoints
Format settings, Matrix : Default (H.263)
Muxing mode : Packed bitstream
Codec ID : DX50
Codec ID/Hint : DivX 5
Duration : 44mn 43s
Bit rate : 1 501 Kbps
Width : 720 pixels
Height : 448 pixels
Display aspect ratio : 1.607
Frame rate : 25.000 fps
Resolution : 24 bits
Colorimetry : 4:2:0
Scan type : Progressive
Bits/(Pixel*Frame) : 0.186
Stream size : 480 MiB (92%)
Writing library : DivX 6.8.5
Audio
ID : 1
Format : MPEG Audio
Format version : Version 1
Format profile : Layer 3
Codec ID : 55
Codec ID/Hint : MP3
Duration : 44mn 43s
Bit rate mode : Constant
Bit rate : 128 Kbps
Channel(s) : 2 channels
Sampling rate : 48.0 KHz
Resolution : 16 bits
Stream size : 41.0 MiB (8%)
Alignment : Split accross interleaves
Interleave, duration : 40 ms (1.00 video frame)
Interleave, preload duration : 500 ms

Скриншот c названием фильма

Скриншоты

ТРЕЙЛЕР
Яндекс.Метрика
Рейтинг@Mail.ru