Хардкор / Hardcore Henry (2015) WEB-DL [H.264/720p-LQ] [Line]

 

Создавать темы 04-Июл-2016 14:51

- Хардкор / Hardcore Henry (2015) WEB-DL [H.264/720p-LQ] - Производство: Россия, США, Базелевс Продакшн, Robusto
Жанр: Боевик, Фантастика
Режиссер: Илья Найшуллер
Продюсер: Тимур Бекмамбетов, Илья Найшуллер, Екатерина Кононенко
Актеры: Шарлто Копли, Данила Козловский, Хейли Беннетт, Андрей Дементьев, Сергей Шнуров, Кирилл Серебренников, Александр Паль, Светлана Устинова, Даша Чаруша, Равшана Куркова
Описание:
Прекрасная супружеская жизнь рядом с очаровательной Эстель — это все, что помнит главный герой после того, как просыпается в неизвестной научной лаборатории, где в чувства его приводит собственная жена. Но супруга тут же оказывается похищенной, и ничего не понимающий главный герой Генри уже вынужден преследовать монстра Акана, который украл его жену.
Теперь ради достижения цели Генри готов на многое. Но позже оказывается, что не только он один является врагом для Акана. У подозрительного Джимми тоже свои планы на злодея. Теперь вместе ребятам предстоит спасти Эстель и предотвратить попытку задействовать армию киборгов в борьбе с человечеством. Им предстоит бороться с самим воплощением зла.-Возраст: 18+ (зрителям, достигшим 18 лет. запрещено для детей)
Рейтинг MPAA: R (лицам до 17 лет обязательно присутствие взрослого)
Дата мировой премьеры: 12 сентября 2015
Дата российской премьеры: 7 апреля 2016, «Bazelevs Distribution»
Продолжительность: 01:36:46
Качество видео: WEB-DL
Перевод: Профессиональный (полное дублирование) Line
Субтитры: Местами английские (вшитые не отключаемые)
Видео: AVC/H.264, 1280x688, ~3938 Kbps
Аудио: MP3, 2 ch, 256 Kbps, CBR

Mediainfo:

General
Unique ID                      : 225132422344210500739603534149580813189 (0xA95EED67C2C6FA0AB3B15952DBC0F385)
Complete name                  : D:\Downloads\Hardcore.Henry.2015.720p.WEB-DL.mkv
Format                         : Matroska
Format version                 : Version 2
File size                      : 2.89 GiB
Duration                       : 1h 36mn
Overall bit rate               : 4 279 Kbps
Movie name                     : EVO
Encoded date                   : UTC 2016-07-03 14:20:25
Writing application            : mkvmerge v5.8.0 ('No Sleep / Pillow') built on Sep  2 2012 15:37:04
Writing library                : libebml v1.2.3 + libmatroska v1.3.0
Video
ID                             : 1
Format                         : AVC
Format/Info                    : Advanced Video Codec
Format profile                 : [url=mailto:[email protected]][email protected][/url]
Format settings, CABAC         : No
Format settings, ReFrames      : 2 frames
Muxing mode                    : Header stripping
Codec ID                       : V_MPEG4/ISO/AVC
Duration                       : 1h 36mn
Bit rate                       : 3 938 Kbps
Width                          : 1 280 pixels
Height                         : 688 pixels
Display aspect ratio           : 1.85:1
Frame rate mode                : Constant
Frame rate                     : 23.976 fps
Color space                    : YUV
Chroma subsampling             : 4:2:0
Bit depth                      : 8 bits
Scan type                      : Progressive
Bits/(Pixel*Frame)             : 0.186
Stream size                    : 2.66 GiB (92%)
Language                       : English
Default                        : Yes
Forced                         : No
Color range                    : Limited
Color primaries                : BT.709
Transfer characteristics       : BT.709
Matrix coefficients            : BT.709
Audio
ID                             : 2
Format                         : MPEG Audio
Format version                 : Version 1
Format profile                 : Layer 3
Mode                           : Joint stereo
Muxing mode                    : Header stripping
Codec ID                       : A_MPEG/L3
Codec ID/Hint                  : MP3
Duration                       : 1h 36mn
Bit rate mode                  : Constant
Bit rate                       : 256 Kbps
Channel(s)                     : 2 channels
Sampling rate                  : 48.0 KHz
Compression mode               : Lossy
Stream size                    : 177 MiB (6%)
Default                        : Yes
Forced                         : No
Скриншоты:

Информация от vladios13


Релиз без рекламы
Яндекс.Метрика
Рейтинг@Mail.ru