Аватар: Легенда об Аанге / Avatar: The Last Airbender (2005) DVDRip [H.264] (сезон 1, серии 1-20 из 20) (Арт-Дубляж) [MP4|640x480]

 

Создавать темы 04-Июл-2016 12:29

-Аватар: Легенда об Аанге / Avatar: The Last Airbender (2005) DVDRip (сезон 1, серии 1-20 из 20) (Арт-Дубляж)
«The Avatar Returns»
- Производство: США, Nickelodeon Animation Studios
Жанр: Фэнтези, Приключения, Mультфильм, Семейный
Режиссер: Майкл Данте ДиМартино, Джанкарло Волп, Этан Сполдинг, Лорен МакМаллен
Актеры: Зак Тайлер, Мэй Уитман, Джек Де Сена, Ди Брэдли Бейкер, Данте Баско, Джесси Флауер, Мако, Грэй Гриффин, Андре Соглиуззо, Крикет Ли
Описание:
Мир разделен на четыре народа: Водные племена, королевство Земли, Воздушные кочевники и Огненная нация. Представители каждого народа обладают способностями управления своей стихией и именуют себя магами Воды, Земли, Воздуха или Огня. Только Аватар является властелином всех четырех стихий. Его роль заключается в поддержке баланса между народами и сохранении мирового порядка.
Однажды предводитель Огненной нации Хозяин Огня развязал войну с целью подчинить себе остальные народы. Отвественность за спасение мира легла на плечи двенадцатилетного мальчика, мага Воздуха по имени Аанг, который узнал, что он Аватар. Аанг отправляется в опасное путешествие вместе со своими отважными друзьями из племени Воды, Катарой и ее братом Соккой. Ему предстоит овладеть всеми стихиями, пройти через множество испытаний, перебороть свои страхи и сразить Хозяина Огня, чтобы остановить войну и восстановить равновесие в мире-Возраст: 6+ (зрителям, достигшим 6 лет)
Продолжительность: ~00:24:00 серия
Качество видео: DVDRip http://multi-up.com/1108422
Перевод: Дублированный - Арт-Дубляж-Видео: AVC/H.264 ([email protected]), 640x480 (4:3), 1000 Кбит/сек
Аудио #1: AAC, 2 канала, 128 Кбит/сек - русский (дублированный, Арт-Дубляж)
Аудио #2: AAC, 2 канала, 128 Кбит/сек - английский (оригинальный)
Аудио #3: AAC, 2 канала, 128 Кбит/сек - французский (дублированный)

MI

General
Complete name               : C:\Downloads\AVATAR\Аватар. Легенда об Аанге (Книга 1) Вода (2005).480p.DVDRip.[NNMclub]\Аватар. Легенда об Аанге.S01E01_Мальчик из айсберга.480p.DVDRip.AAC.x264.mp4
Format                      : MPEG-4
Format profile              : Base Media / Version 2
Codec ID                    : mp42 (mp42/isom)
File size                   : 235 MiB
Duration                    : 23mn 35s
Overall bit rate mode       : Variable
Overall bit rate            : 1 393 Kbps
Collection                  : Аватар: Легенда об Аанге
Season                      : 1
Album                       : Аватар: Легенда об Аанге, Season 1
Album/Sorted by             : Аватар: Легенда об Аанге, Season 1
Part                        : 1
Part/Position               : 1
Part/Total                  : 1
Track name                  : Мальчик из айсберга
Track name/Position         : 1
Performer                   : Аватар: Легенда об Аанге
Genre                       : Action, Adventure, Animation, Children, Fantasy
ContentType                 : TV Show
Description                 : Первый эпизод сериала. Рассказывает о Катаре и Сокке, представителях Южного племени воды, которые во время рыбалки находят айсберг и заточённого в нем 12-летнего мальчика, Аанга. / Действие Аватара происходит в мире боевых искусств и покорения стихий, вдохновленном азиатской культурой. Сериал заимствует элементы восточноазиатской, югоазиатской и западной культуры, создавая смесь из до этого обычно разделяемых категорий традиционных мультфильмов США. Сюжет повествует о приключениях Аанга, основного протагониста сериала, и его друзей. Аанг должен спасти мир победив Повелителя Огня и завершив разрушительную войну развязанную Народом Огня.
Recorded date               : UTC 2005-02-21 08:00:00
Encoded date                : UTC 2016-07-04 08:04:28
Tagged date                 : UTC 2016-07-04 08:14:32
Cover                       : Yes
Rating                      : None
TVNetworkName               : Nickelodeon
Part_ID                     : 1
Title/Sort                  : Мальчик из айсберга / Аватар: Легенда об Аанге
LongDescription             : Первый эпизод сериала. Рассказывает о Катаре и Сокке, представителях Южного племени воды, которые во время рыбалки находят айсберг и заточённого в нем 12-летнего мальчика, Аанга.
ContentRating               : us-tv|TV-Y7|200|
Video
ID                          : 1
Format                      : AVC
Format/Info                 : Advanced Video Codec
Format profile              : [url=mailto:[email protected]][email protected][/url]
Format settings, CABAC      : No
Format settings, ReFrames   : 4 frames
Codec ID                    : avc1
Codec ID/Info               : Advanced Video Coding
Duration                    : 23mn 35s
Bit rate                    : 1 000 Kbps
Width                       : 640 pixels
Height                      : 480 pixels
Display aspect ratio        : 4:3
Frame rate mode             : Variable
Frame rate                  : 23.976 (24000/1001) fps
Minimum frame rate          : 23.810 fps
Maximum frame rate          : 24.390 fps
Color space                 : YUV
Chroma subsampling          : 4:2:0
Bit depth                   : 8 bits
Scan type                   : Progressive
Bits/(Pixel*Frame)          : 0.136
Stream size                 : 169 MiB (72%)
Writing library             : x264 core 148 r2692 64f4e24
Encoding settings           : cabac=0 / ref=4 / deblock=1:0:0 / analyse=0x3:0x133 / me=umh / subme=7 / psy=1 / psy_rd=0.40:0.00 / mixed_ref=1 / me_range=32 / chroma_me=1 / trellis=2 / 8x8dct=1 / cqm=0 / deadzone=21,11 / fast_pskip=0 / chroma_qp_offset=-2 / threads=15 / lookahead_threads=2 / sliced_threads=0 / nr=0 / decimate=0 / interlaced=0 / bluray_compat=0 / constrained_intra=0 / bframes=3 / b_pyramid=2 / b_adapt=2 / b_bias=0 / direct=3 / weightb=1 / open_gop=0 / weightp=2 / keyint=240 / keyint_min=23 / scenecut=40 / intra_refresh=0 / rc_lookahead=40 / rc=2pass / mbtree=1 / bitrate=1000 / ratetol=1.0 / qcomp=0.60 / qpmin=0 / qpmax=69 / qpstep=4 / cplxblur=20.0 / qblur=0.5 / vbv_maxrate=9000 / vbv_bufsize=9000 / nal_hrd=none / filler=0 / ip_ratio=1.40 / aq=1:0.60
Encoded date                : UTC 2016-07-04 08:04:28
Tagged date                 : UTC 2016-07-04 08:05:16
Color range                 : Limited
Matrix coefficients         : BT.709
Menus                       : 5
Audio #1
ID                          : 2
Format                      : AAC
Format/Info                 : Advanced Audio Codec
Format profile              : LC
Codec ID                    : 40
Duration                    : 23mn 29s
Source duration             : 23mn 29s
Bit rate mode               : Variable
Bit rate                    : 128 Kbps
Maximum bit rate            : 133 Kbps
Channel(s)                  : 2 channels
Channel positions           : Front: L R
Sampling rate               : 48.0 KHz
Frame rate                  : 46.875 fps (1024 spf)
Compression mode            : Lossy
Stream size                 : 21.5 MiB (9%)
Source stream size          : 21.5 MiB (9%)
Language                    : Russian
Default                     : Yes
Alternate group             : 1
Encoded date                : UTC 2016-07-04 08:04:28
Tagged date                 : UTC 2016-07-04 08:05:16
Audio #2
ID                          : 3
Format                      : AAC
Format/Info                 : Advanced Audio Codec
Format profile              : LC
Codec ID                    : 40
Duration                    : 23mn 35s
Source duration             : 23mn 35s
Bit rate mode               : Variable
Bit rate                    : 128 Kbps
Maximum bit rate            : 133 Kbps
Channel(s)                  : 2 channels
Channel positions           : Front: L R
Sampling rate               : 48.0 KHz
Frame rate                  : 46.875 fps (1024 spf)
Compression mode            : Lossy
Stream size                 : 21.6 MiB (9%)
Source stream size          : 21.6 MiB (9%)
Language                    : English
Default                     : No
Alternate group             : 1
Encoded date                : UTC 2016-07-04 08:04:28
Tagged date                 : UTC 2016-07-04 08:05:16
Audio #3
ID                          : 4
Format                      : AAC
Format/Info                 : Advanced Audio Codec
Format profile              : LC
Codec ID                    : 40
Duration                    : 23mn 35s
Source duration             : 23mn 35s
Bit rate mode               : Variable
Bit rate                    : 128 Kbps
Maximum bit rate            : 133 Kbps
Channel(s)                  : 2 channels
Channel positions           : Front: L R
Sampling rate               : 48.0 KHz
Frame rate                  : 46.875 fps (1024 spf)
Compression mode            : Lossy
Stream size                 : 21.6 MiB (9%)
Source stream size          : 21.6 MiB (9%)
Language                    : French
Default                     : No
Alternate group             : 1
Encoded date                : UTC 2016-07-04 08:04:28
Tagged date                 : UTC 2016-07-04 08:05:16
Menu #1
00:00:00.000                : Chapter 01
00:23:33.834                : Chapter 02
Menu #2
ID                          : 5
Codec ID                    : text
Duration                    : 23mn 35s
Language                    : English
Encoded date                : UTC 2016-07-04 08:05:16
Tagged date                 : UTC 2016-07-04 08:05:16
Bit rate mode               : CBR
Menu For                    : 1
Duration_FirstFrame         : 1412422
00:00:00.000                : Chapter 01
00:23:33.834                : Chapter 02

Список серий:

Книга 1 - Вода:
Эпизод 01 Мальчик из айсберга/The Boy in the Iceberg (21 февраля 2005)
Эпизод 02 Возвращение Аватара/The Avatar Returns (21 февраля 2005)
Эпизод 03 Южный храм воздуха/The Southern Air Temple (25 февраля 2005)
Эпизод 04 Воины Киоши/The Warriors of Kyoshi (4 марта 2005)
Эпизод 05 Царь Омашу/The King of Omashu (18 марта 2005)
Эпизод 06 Пленные/Imprisoned (25 марта 2005)
Эпизод 07 Зимнее Солнцестояние: Мир Духов, Часть 1/The Spirit World: Winter Solstice, Part 1 (8 апреля 2005)
Эпизод 08 Зимнее Солнцестояние: Аватар Року, Часть 2/Avatar Roku: Winter Solstice, Part 2 (15 апреля 2005)
Эпизод 09 Свиток Водной магии/The Waterbending Scroll (29 апреля 2005)
Эпизод 10 Джет/Jet (6 мая 2005)
Эпизод 11 Большой водораздел/The Great Divide (20 мая 2005)
Эпизод 12 Буря/The Storm (3 июня 2005)
Эпизод 13 Синяя маска/The Blue Spirit (17 июня 2005)
Эпизод 14 Гадалка/The Fortuneteller (23 сентября 2005)
Эпизод 15 Бато из племени Воды/Bato of the Water Tribe (7 октября 2005)
Эпизод 16 Дезертир/The Deserter (21 октября 2005)
Эпизод 17 Северный Храм Воздуха/The Northern Air Temple (4 ноября 2005)
Эпизод 18 Учитель магии воды/The Waterbending Master (18 ноября 2005)
Эпизод 19 Осада Севера: Часть 1/The Siege of the North: Part 1 (2 декабря 2005)
Эпизод 20 Осада Севера: Часть 2/The Siege of the North: Part 2 (2 декабря 2005)
Скриншоты:
Яндекс.Метрика
Рейтинг@Mail.ru