[ Сегодня на трекере фрилич! Идет свободное скачивание без начисления Download ]

Королевство викингов / Vikingdom (Исри Крю / Yusry Abd Halim (Yusry Kru)) [2013 г., приключения, фэнтези, боевик, BDRip, 720p] MVO + Original (Eng) + Sub Eng + Rom

 

Создавать темы 01-Янв-2014 09:11

-Королевство викингов / Vikingdom-- Производство: США, Малайзия, KRU Studios
Год выпуска: 2013 г.
Жанр: приключения, фэнтези, боевик
Продолжительность: 01:54:34
Мировая премьера: 12 сентября 2013
Перевод: Профессиональный (многоголосый, закадровый) [BaibaKo]
Оригинальный аудиопоток: английский
Режиссер: Исри Крю / Yusry Abd Halim (Yusry Kru)-В ролях: Доминик Пёрселл, Наташа Мальте, Крэйг Фэйрбрасс, Джон Фу, Конан Стивенс, Джесси Мосс, Теган Мосс, Патрик Мюррей, Байрон Гибсон, Тревор Коппола-Описание: Среди древних викингов бытовала старая легенда о существовании волшебного молота бога Тора чрезвычайно легкого, но вместе с тем смертоносного оружия, способного поразить в бою любого противника. Согласно этой легенде, молот после метания во врага самостоятельно возвращается в руку своего хозяина. Это ли не идеальное орудие убийства? Молот Тора был мечтой всех знающих о нем древних викингов. И лишь один из них, один из сильнейших представителей викингов все же решился найти это божественное наследие. Этому отважному викингу придется взять в руки свой меч, чтобы сразиться с злобным созданием невообразимой силы.-
Качество видео: BDRip
Контейнер: MKV
Стандарт разрешения: 720p
Видео кодек: H.264
Аудио кодек: AC3, DTS
Видео: AVC, 1280x690 [email protected] (1.855), 23.976 fps, 7 000 Kbps (0.331 bit/pixel)
Аудио: русский, AC3, 48.0 KHz, 6 ch, 384 Kbps, CBR (многоголосый закадровый) - (BaibaKo)
Аудио #2: английский, оригинал, DTS, 48.0 KHz, 6 ch, 755 Kbps, CBR
Cубтитры: Английские, Румынские

Рецензия

Люблю я такие фильмы. Всегда, с интересом наблюдаю за такими проектами. В картинах, пободных этой, находится место храбрым воинам, опасным тиранам, чудовищам и красавицам. Между прочим, среди своих собратьев — малобюджеток, эта картина выглядит неплохо. Здесь, вы не найдёте дорогих спецэффектов и умопомрачительной графики. Зато, вас ждут динамичные схватки крепышей — воинов, опасные приключения и должная атмосфера. Итак. Кратко о фильме.
Сюжет представляет из себя довольно простой квест. Бог Тор спустился на землю в человеческом обличие, чтобы захватить власть над всеми. Для того, чтобы помешать злодею, нужен магический рог. На его поиски отправляется группа смельчаков, во главе с великим воином Эриком Кровавым. Состав этого отряда интересный. Главный герой, его старый друг, друид, ловкий парнишка — раб, боевая брюнетка, два брата — здоровяка и ещё пара — тройка личностей. Персонажи получились довольно яркими. Каждый из них, запоминается и имеет место в фильме. Сразу же, отмечу некоторых актёров. Доминик Пёрселл был убедителен. Мужественный, крепкий и храбрый воин. Кстати говоря, грим и костюмы мне понравились. Не каждая девушка, похвастает такой шевелюрой, как у бывалых викингов. Что ж. Воду, они пили чистую ключевую, питались дарами матушки — природы (а, не мясосодержащими продуктами с ГМО) и много ходили по Белу — свету. Доминик, как актёр, ничего удивительного не показал. Зато, для такой роли, подошёл превосходно. Нелишним было присутствие Наташи Мальте. Свою героиню показала неплохо. Была убедительна. Понравился Крэйг Фэйрбрасс. Интересный герой получился у Джона Фу. Достойный злодей — громила вышел из Конана Стивенса. Про остальных не стану писать. Но, все смотрелись в фильме неплохо. Стоит отметить неплохое музыкальное сопровождение. Графика, конечно, не идеальна, но, и, не напрягала. Честно. К тому же, не всем фильмам, везёт с многомиллионными бюджетами. Может быть, иногда, это даже хорошо. Операторская работа устроила. Схватки сняты качественно. Смотрелись интересно и красиво. Откровенной дешевизны, я не заметил. Всё на уровне выделенных средств.
В целом, фильмом остался доволен. Конечно, он понравится далеко не всем. Даже, не всем любителям жанра. Разбаловали нас дорогими фильмами. Лично я, всё — таки, посоветую посмотреть это кино. На досуге, скучным вечерком, смело включайте эту картину. Был бы, не против продолжения. Подчёркиваю. Оценивал данный проект честно, как малобюджетный. Спасибо за внимание. Приятного просмотра.
8 из 10

Media Info

General
Complete name : F:\Фильмы\ЗАРУБНЖНЫЕ\BDRip\Vikingdom.2013.720p.BDRip
Format : Matroska
File size : 6.52 GiB
Duration : 1h 54mn
Overall bit rate : 8 148 Kbps
Encoded date : UTC 2013-12-29 17:52:00
Writing application : mkvmerge v4.9.1 ('Ich will') built on Jul 11 2011 23:53:15
Writing library : libebml v1.2.1 + libmatroska v1.1.1
Video
ID : 1
Format : AVC
Format/Info : Advanced Video Codec
Format profile : [email protected]
Format settings, CABAC : Yes
Format settings, ReFrames : 9 frames
Codec ID : V_MPEG4/ISO/AVC
Duration : 1h 54mn
Bit rate : 6 848 Kbps
Width : 1 280 pixels
Height : 690 pixels
Display aspect ratio : 1.855
Frame rate : 23.976 fps
Resolution : 24 bits
Colorimetry : 4:2:0
Scan type : Progressive
Bits/(Pixel*Frame) : 0.323
Stream size : 5.47 GiB (84%)
Audio #1
ID : 2
Format : AC-3
Format/Info : Audio Coding 3
Codec ID : A_AC3
Duration : 1h 54mn
Bit rate mode : Constant
Bit rate : 384 Kbps
Channel(s) : 6 channels
Channel positions : Front: L C R, Surround: L R, LFE
Sampling rate : 48.0 KHz
Stream size : 315 MiB (5%)
Language : Russian
Audio #2
ID : 3
Format : DTS
Format/Info : Digital Theater Systems
Codec ID : A_DTS
Duration : 1h 54mn
Bit rate mode : Constant
Bit rate : 755 Kbps
Channel(s) : 6 channels
Channel positions : Front: L C R, Surround: L R, LFE
Sampling rate : 48.0 KHz
Resolution : 16 bits
Stream size : 618 MiB (9%)
Text #1
ID : 4
Format : UTF-8
Codec ID : S_TEXT/UTF8
Codec ID/Info : UTF-8 Plain Text
Language : Romanian
Text #2
ID : 5
Format : UTF-8
Codec ID : S_TEXT/UTF8
Codec ID/Info : UTF-8 Plain Text
Menu
00:00:00.000 : en:00:00:00.000
00:09:17.182 : en:00:09:17.182
00:20:31.147 : en:00:20:31.147
00:30:28.493 : en:00:30:28.493
00:39:43.006 : en:00:39:43.006
00:48:20.397 : en:00:48:20.397
00:58:42.227 : en:00:58:42.227
01:07:43.851 : en:01:07:43.851
01:16:24.747 : en:01:16:24.747
01:23:18.327 : en:01:23:18.327
01:33:51.209 : en:01:33:51.209
01:43:50.724 : en:01:43:50.724

Скриншот c названием фильма

Скриншоты

Создавать темы 31-Янв-2016 14:00 (спустя 2 года)

Топик был перенесен из форума Зарубежные Новинки (HD*Rip/LQ, DVDRip) в форум Зарубежные Фильмы (HD)
T_O_M
Яндекс.Метрика
Рейтинг@Mail.ru