[ Сегодня на трекере фрилич! Идет свободное скачивание без начисления Download ]

Лето белой воды / White Water Summer (Джефф Блекнер / Jeff Bleckner) [1987 г., драма, приключения, WEB-DL, 720p, AVC] MVO [ОРТ] + MVO [НТВ] + MVO [СТС] + Sub (Rus)

 

Создавать темы 04-Июл-2016 05:07

-Лето белой воды / White Water Summer-- Производство: США, Columbia Pictures Corporation, Polar Entertainment
Год выпуска: 1987 г.
Жанр: драма, приключения
Продолжительность: 01:29:44Мировая премьера: 10 июля 1987
Перевод: Профессиональный (многоголосый, закадровый) [ОРТ]
Перевод 2: Профессиональный (многоголосый, закадровый) [НТВ]
Перевод 3: Профессиональный (многоголосый, закадровый) [СТС]
Режиссер: Джефф Блекнер / Jeff Bleckner-В ролях: Кевин Бейкон, Шон Остин, Джонатан Уорд, К. С. Мартел, Мэтт Адлер, Чарльз Сиберт, Кэролайн МакУильямс-Описание: Драма, обильно сдобренная юмором, в которой о событиях последнего лета своего детства весело и иронично по отношению к самому себе - мальчику - рассказывает заметно повзрослевший, но сохранивший запал юношеского оптимизма главный герой по имени Алан. Мы то и дело переносимся вместе с ним из времени сегодняшнего в дни, когда Алан вместе с тремя другими, более старшими по возрасту подростками под руководством молодого инструктора Вика отправился в поход. Лес, горы, бурная река, мост над пропастью...-
Качество видео: WEB-DL
Контейнер: MKV
Стандарт разрешения: 720p
Видео кодек: MPEG4 AVC
Аудио кодек: AC3
Видео: 1280x542 (2.35:1); 3967 Kbps; 23.976 fps; 0.238 bpp
Аудио: Russian; AC3; 48.0 KHz; 2ch; 192 Kbps MVO ОРТ
Аудио #2: Russian; AC3; 48.0 KHz; 2ch; 192 Kbps MVO НТВ
Аудио #3: Russian; AC3; 48.0 KHz; 2ch; 192 Kbps MVO СТСCубтитры: русские
Формат субтитров: softsub (SRT)
Доп. информация о субтитрах: включаемые

Рецензия

Жаркое лето белой водыБелой водой называют бурлящий поток стремительных рек, по которым можно сплавляться на чем только Ваша душа пожелает — от каноэ до плота или каяка. Но наша пятерка отважных- молодой инструктор и 4 его воспитанников — предпочла провести жаркое лето в байдарке на холодных водах реки. Воды не так уж и много в фильме — снято всего 2-3 сцены сплава по воде, зато от финальной сцены спасения в конце — перехватывает дух!Так вот как надо воспитывать мужчин! Секрет кажется простым — на 6 недель взять в глухие места, там муштровать, заставляя преодолевать себя и свои страхи. НО в определенный момент воспитательные методы инструктора показались мне крайне сомнительными (ночью отправить на мост через каньон или оставить болтаться на веревке), ХОТЯ ему и удалось сломить упрямство Алана и заставить-таки его преодолеть свой страх, несмотря на крики «Я не смогу!»В этом фильме акцент больше сделан на психологию коллектива из 5 человек (4 из которого — подростки!) на фоне красивой природы национального парка США. Сначала во всем доминирует инструктор-диктатор, навязывающий свою волю и решения подросткам. Но а как иначе? В тургруппе руководитель всегда прав! И без обсуждения!Но ведь ситуация в диких условиях всегда непредсказуема! Сегодня мы пинаем и физически, и морально самого слабого в группе, а завтра — он единственный человек в группе, способный взять ответственность и руководство на себя, решениям которого мы слепо веруем.Вердикт — в горах выживать должен уметь каждый из группы! Смотреть подросткам, любителям приключенческих фильмов и выездов на природу.

Media Info

Общее
Уникальный идентификатор : 216626998261367971184085546375570241051 (0xA2F8D79F19B204FF882A34893F6FB61B)
Полное имя : F:\Лето белой воды\Leto beloj vody.1987.720p.WEB-DL.AVC.[pirat.ca].mkv
Формат : Matroska
Версия формата : Version 2
Размер файла : 2,91 Гбайт
Продолжительность : 1 ч. 29 м.
Общий поток : 4635 Кбит/сек
Название фильма : White.Water.Summer.1987.720p.WEB-DL
Дата кодирования : UTC 2016-07-02 21:26:05
Программа кодирования : mkvmerge v5.3.0 ('I could have danced') built on Feb 9 2012 10:38:07
Библиотека кодирования : libebml v1.2.3 + libmatroska v1.3.0
Attachments : poster.jpgВидео
Идентификатор : 1
Формат : AVC
Формат/Информация : Advanced Video Codec
Профиль формата : [email protected]/* */
Параметр CABAC формата : Нет
Параметр ReFrames формата : 2 кадра
Идентификатор кодека : V_MPEG4/ISO/AVC
Продолжительность : 1 ч. 29 м.
Битрейт : 3967 Кбит/сек
Ширина : 1280 пикселей
Высота : 542 пикселя
Соотношение сторон : 2,35:1
Режим частоты кадров : Постоянный
Частота кадров : 23,976 кадра/сек
Цветовое пространство : YUV
Субдискретизация насыщенности : 4:2:0
Битовая глубина : 8 бит
Тип развёртки : Прогрессивная
Бит/(Пиксели*Кадры) : 0.238
Размер потока : 2,49 Гбайт (86%)
Язык : English
Default : Да
Forced : Нет
Цветовой диапазон : Limited
Основные цвета : BT.709
Характеристики трансфера : BT.709
Коэффициенты матрицы : BT.709
Statistics Tags Issue : mkvmerge v8.3.0 ('Over the Horizon') 64bit 2016-06-17 06:32:27 / mkvmerge v5.3.0 ('I could have danced') built on Feb 9 2012 10:38:07 2016-07-02 21:26:05
FromStats_BitRate : 4058869
FromStats_Duration : 01:29:41.632000000
FromStats_FrameCount : 129030
FromStats_StreamSize : 2730417465Аудио #1
Идентификатор : 2
Формат : AC-3
Формат/Информация : Audio Coding 3
Расширение режима : CM (complete main)
Параметр Endianness формата : Big
Идентификатор кодека : A_AC3
Продолжительность : 1 ч. 29 м.
Вид битрейта : Постоянный
Битрейт : 192 Кбит/сек
Каналы : 2 канала
Расположение каналов : Front: L R
Частота : 48,0 КГц
Частота кадров : 31,250 кадров/сек (1536 spf)
Метод сжатия : С потерями
Размер потока : 123 Мбайт (4%)
Заголовок : MVO ОРТ
Язык : Russian
Default : Да
Forced : Нет
Statistics Tags Issue : mkvmerge v8.3.0 ('Over the Horizon') 64bit 2016-06-17 06:32:27 / mkvmerge v5.3.0 ('I could have danced') built on Feb 9 2012 10:38:07 2016-07-02 21:26:05
FromStats_BitRate : 192000
FromStats_Duration : 01:29:44.832000000
FromStats_FrameCount : 168276
FromStats_StreamSize : 129235968Аудио #2
Идентификатор : 3
Формат : AC-3
Формат/Информация : Audio Coding 3
Расширение режима : CM (complete main)
Параметр Endianness формата : Big
Идентификатор кодека : A_AC3
Продолжительность : 1 ч. 29 м.
Вид битрейта : Постоянный
Битрейт : 192 Кбит/сек
Каналы : 2 канала
Расположение каналов : Front: L R
Частота : 48,0 КГц
Частота кадров : 31,250 кадров/сек (1536 spf)
Метод сжатия : С потерями
Размер потока : 123 Мбайт (4%)
Заголовок : MVO НТВ
Язык : Russian
Default : Нет
Forced : Нет
Statistics Tags Issue : mkvmerge v8.3.0 ('Over the Horizon') 64bit 2016-06-17 06:32:27 / mkvmerge v5.3.0 ('I could have danced') built on Feb 9 2012 10:38:07 2016-07-02 21:26:05
FromStats_BitRate : 192000
FromStats_Duration : 01:29:44.832000000
FromStats_FrameCount : 168276
FromStats_StreamSize : 129235968Аудио #3
Идентификатор : 4
Формат : AC-3
Формат/Информация : Audio Coding 3
Расширение режима : CM (complete main)
Параметр Endianness формата : Big
Идентификатор кодека : A_AC3
Продолжительность : 1 ч. 29 м.
Вид битрейта : Постоянный
Битрейт : 192 Кбит/сек
Каналы : 2 канала
Расположение каналов : Front: L R
Частота : 48,0 КГц
Частота кадров : 31,250 кадров/сек (1536 spf)
Метод сжатия : С потерями
Размер потока : 123 Мбайт (4%)
Заголовок : MVO СТС
Язык : Russian
Default : Нет
Forced : Нет
Statistics Tags Issue : mkvmerge v8.3.0 ('Over the Horizon') 64bit 2016-06-17 06:32:27 / mkvmerge v5.3.0 ('I could have danced') built on Feb 9 2012 10:38:07 2016-07-02 21:26:05
FromStats_BitRate : 192000
FromStats_Duration : 01:29:44.832000000
FromStats_FrameCount : 168276
FromStats_StreamSize : 129235968Текст
Идентификатор : 5
Формат : UTF-8
Идентификатор кодека : S_TEXT/UTF8
Идентификатор кодека/Информация : UTF-8 Plain Text
Язык : Russian
Default : Нет
Forced : Нет
Statistics Tags Issue : mkvmerge v8.3.0 ('Over the Horizon') 64bit 2016-06-17 06:32:27 / mkvmerge v5.3.0 ('I could have danced') built on Feb 9 2012 10:38:07 2016-07-02 21:26:05
FromStats_BitRate : 81
FromStats_Duration : 01:24:42.730000000
FromStats_FrameCount : 844
FromStats_StreamSize : 52080

Скриншот c названием фильма

Скриншоты

-Трейлер
Яндекс.Метрика
Рейтинг@Mail.ru