[ Сегодня на трекере фрилич! Идет свободное скачивание без начисления Download ]

Брюс Ли – боец / Bruce Lee-The Fighter (Срину Вайтла / Sreenu Vaitla) [2015 г., боевик, комедия, семейный, WEB-DL, 1080p] MVO + Sub (Rus только на песни)

 

Создавать темы 04-Июл-2016 04:55

-Брюс Ли – боец / Bruce Lee-The Fighter-- Производство: Индия, DVV Entertainments, ...
Год выпуска: 2015 г.
Жанр: боевик, комедия, семейный
Продолжительность: 02:30:40Мировая премьера: 15 октября 2015 Индия
Перевод: Любительский (многоголосый, закадровый)
Режиссер: Срину Вайтла / Sreenu Vaitla-В ролях: Рам Чаран Теджа, Брахмаджи, Брахманандам, Чирандживи, Тиска Чопра, Харбанда Крити, Надия Мойду, Авинаш Прадхан, Рао Рамеш-Описание: У каскадёра Картика в жизни было три страсти — кунг-фу, за что ему дали прозвище Брюс Ли, учёба сестры, ради чего он в детстве пожертвовал собственным образованием, и счастье отца, ради которого ему много чего приходилось сносить. После случайного знакомства с очень идейной девушкой Рией в его жизни появилась четвёртая страсть, а вместе с ней и много новых проблем, ведь Рия впечатлилась им, по ошибке приняв за полицейского. И теперь Картику придётся доказать, что каскадёр не только круче бандитов, но и не хуже полицейских.-
Качество видео: WEB-DL
Контейнер: MKV
Стандарт разрешения: 1080p
Видео кодек: MPEG4 AVC
Аудио кодек: AC3
Видео: 1920х816, ~2256 Kbps, 30,000 fps
Аудио: AC3, 6 ch, 448 Kbps, 48,0 kHz
Cубтитры: русские
Формат субтитров: softsub (SRT)
Доп. информация о субтитрах: включаемые (только на песни)

Media Info

Общее
Уникальный идентификатор : 182805687815840463542832504592616389965 (0x89871845EB547660BFFB40D0CDDFFD4D)
Полное имя : J:\Брюс Ли - Боец\Brus Li Boetс.2015.1080.WEB-DL-AVC.[pirat.ca].mkv
Формат : Matroska
Версия формата : Version 4 / Version 2
Размер файла : 2,85 Гбайт
Продолжительность : 2 ч. 30 м.
Общий поток : 2706 Кбит/сек
Дата кодирования : UTC 2016-07-02 03:01:58
Программа кодирования : mkvmerge v8.3.0 ('Over the Horizon') 32bit
Библиотека кодирования : libebml v1.3.1 + libmatroska v1.4.2Видео
Идентификатор : 1
Формат : AVC
Формат/Информация : Advanced Video Codec
Профиль формата : [email protected]/* */
Параметр CABAC формата : Да
Параметр ReFrames формата : 2 кадра
Идентификатор кодека : V_MPEG4/ISO/AVC
Продолжительность : 2 ч. 30 м.
Битрейт : 2256 Кбит/сек
Ширина : 1920 пикселей
Высота : 816 пикселей
Соотношение сторон : 2,35:1
Режим частоты кадров : Постоянный
Частота кадров : 30,000 кадров/сек
Цветовое пространство : YUV
Субдискретизация насыщенности : 4:2:0
Битовая глубина : 8 бит
Тип развёртки : Прогрессивная
Бит/(Пиксели*Кадры) : 0.048
Размер потока : 2,37 Гбайт (83%)
Библиотека кодирования : x264 core 129
Default : Да
Forced : НетАудио
Идентификатор : 3
Формат : AC-3
Формат/Информация : Audio Coding 3
Расширение режима : CM (complete main)
Параметр Endianness формата : Big
Идентификатор кодека : A_AC3
Продолжительность : 2 ч. 30 м.
Вид битрейта : Постоянный
Битрейт : 448 Кбит/сек
Каналы : 6 каналов
Расположение каналов : Front: L C R, Side: L R, LFE
Частота : 48,0 КГц
Частота кадров : 31,250 кадров/сек (1536 spf)
Метод сжатия : С потерями
Размер потока : 483 Мбайт (17%)
Default : Да
Forced : НетТекст
Идентификатор : 2
Формат : UTF-8
Идентификатор кодека : S_TEXT/UTF8
Идентификатор кодека/Информация : UTF-8 Plain Text
Продолжительность : 1 ч. 52 м.
Битрейт : 16 бит/сек
Count of elements : 206
Размер потока : 13,4 Кбайт (0%)
Default : Да
Forced : Нет

Скриншот c названием фильма

Скриншоты

-Трейлер
Яндекс.Метрика
Рейтинг@Mail.ru