Хардкор / Hardcore Henry (2015) WEB-DL 720p | D | Line

 

Создавать темы 03-Июл-2016 23:14

Информация о фильме
Название: Хардкор (2015) WEB-DL 720р
Оригинальное название: Hardcore Henry
Год выхода: 2015
Жанр: боевик, фантастика
Режиссер: Илья Найшуллер
В ролях:
Шарлто Копли
Данила Козловский
Хейли Беннетт
Андрей Дементьев
Сергей Шнуров
Кирилл Серебренников
Александр Паль
Светлана Устинова
Даша Чаруша
Равшана Куркова

О фильме:
Прекрасная супружеская жизнь рядом с очаровательной Эстель — это все, что помнит главный герой после того, как просыпается в неизвестной научной лаборатории, где в чувства его приводит собственная жена. Но супруга тут же оказывается похищенной, и ничего не понимающий главный герой Генри уже вынужден преследовать монстра Акана, который украл его жену.
Теперь ради достижения цели Генри готов на многое. Но позже оказывается, что не только он один является врагом для Акана. У подозрительного Джимми тоже свои планы на злодея. Теперь вместе ребятам предстоит спасти Эстель и предотвратить попытку задействовать армию киборгов в борьбе с человечеством. Им предстоит бороться с самим воплощением зла.

Страна: Россия, США
Студия: Базелевс Продакшн, Robusto
Продолжительность: 01:36:46
Перевод: Профессиональный(полное дублирование) Line
-БЕЗ РЕКЛАМЫ-
Файл
Кодек: AVC
Качество: WEB-DL 720p
Видео: MPEG-4 AVC, 1280x688, 23.976fps, 3 938 Kbps
Звук: 48.0 kHz, mp3, 2/0 (L,R) ch, 256 Kbps
Субтитры: Местами английские (вшитые)

МедиаИнфо

General
Complete name : Hardcore.Henry.2015.720p.WEB-DL.w.look.mkv
Format : Matroska
Format version : Version 2
File size : 2.89 GiB
Duration : 1h 36mn
Overall bit rate : 4 279 Kbps
Encoded date : UTC 2016-07-03 14:20:25
Writing application : mkvmerge v5.8.0 ('No Sleep / Pillow') built on Sep 2 2012 15:37:04
Writing library : libebml v1.2.3 + libmatroska v1.3.0
Video
ID : 1
Format : AVC
Format/Info : Advanced Video Codec
Format profile : [email protected]
Format settings, CABAC : No
Format settings, ReFrames : 2 frames
Muxing mode : Header stripping
Codec ID : V_MPEG4/ISO/AVC
Duration : 1h 36mn
Bit rate : 3 938 Kbps
Width : 1 280 pixels
Height : 688 pixels
Display aspect ratio : 1.85:1
Frame rate mode : Constant
Frame rate : 23.976 fps
Color space : YUV
Chroma subsampling : 4:2:0
Bit depth : 8 bits
Scan type : Progressive
Bits/(Pixel*Frame) : 0.186
Stream size : 2.66 GiB (92%)
Language : Russian
Default : Yes
Forced : No
Color range : Limited
Color primaries : BT.709
Transfer characteristics : BT.709
Matrix coefficients : BT.709
Audio
ID : 2
Format : MPEG Audio
Format version : Version 1
Format profile : Layer 3
Mode : Joint stereo
Muxing mode : Header stripping
Codec ID : A_MPEG/L3
Codec ID/Hint : MP3
Duration : 1h 36mn
Bit rate mode : Constant
Bit rate : 256 Kbps
Channel(s) : 2 channels
Sampling rate : 48.0 KHz
Compression mode : Lossy
Stream size : 177 MiB (6%)
Default : Yes
Forced : No

Скриншоты

Релиз от: w.look
Яндекс.Метрика
Рейтинг@Mail.ru