[ Сегодня на трекере фрилич! Идет свободное скачивание без начисления Download ]

Лето белой воды / White Water Summer (Джефф Блекнер / Jeff Bleckner) [1987 г., драма, приключения, WEB-DLRip] MVO [ОРТ]

 

Создавать темы 03-Июл-2016 03:34

-Лето белой воды / White Water Summer-- Производство: США, Columbia Pictures Corporation, Polar Entertainment
Год выпуска: 1987 г.
Жанр: драма, приключения
Продолжительность: 01:29:41Мировая премьера: 10 июля 1987
Перевод: Профессиональный (многоголосый, закадровый) [ОРТ]
Режиссер: Джефф Блекнер / Jeff Bleckner-В ролях: Кевин Бэйкон, Шон Эстин, Джонатан Уорд, К. Ч. Мартел, Мэтт Адлер, Кэролайн МакУильямс, Чарльз Сиберт, Джозеф Пассеррелли-Описание: Драма, обильно сдобренная юмором, в которой о событиях последнего лета своего детства весело и иронично по отношению к самому себе - мальчику - рассказывает заметно повзрослевший, но сохранивший запал юношеского оптимизма главный герой по имени Алан. Мы то и дело переносимся вместе с ним из времени сегодняшнего в дни, когда Алан вместе с тремя другими, более старшими по возрасту подростками под руководством молодого инструктора Вика отправился в поход. Лес, горы, бурная река, мост над пропастью... Романтика...Но, одна ли романтика...-
Качество видео: WEB-DLRip
Контейнер: AVI
Видео кодек: XviD
Аудио кодек: AC3
Видео: 720x304 (2.37:1), 23.976 fps, XviD build 73 ~1742 kbps avg, 0.33 bit/pixel
Аудио: 48 kHz, AC3 Dolby Digital, 2/0 (L,R) ch, ~192 kbps
Cубтитры: отсутствуют

Рецензия

В коллекцию. Часть 41.Вот не знаю почему, но я дико люблю фильмы про природу. Причем не важно в каком контексте, просто про природу или про противостояние человека и природы, без разницы. Просто мне нравятся такие фильмы и все.На данный фильм натолкнулся совершенно случайно, когда в фильмографии Кевина Бейкона новый, ранее не смотренный мной фильм, а прочитав к нему описание, тут же решил ознакомиться.В основе сюжета «Лето белый воды» лежит история юного парня Алана, которого родители из благих побуждений, аля «чтоб повзрослел» сплавили в поход по дикой природе с небольшой группой из трех человек под руководством опытного инструктора. Красота дикой, нетронутой природы, коллективный дух, самостоятельность, преодоление собственных страхов, закаливание духа и поиск мужественности, все это должно было сделать из совсем сопливого юнца настоящего мужчину.Помимо самого похода, который богат на события экстремального характера, красивых ракурсов и видов природы, диких рек, громадных гор и скал, ущелий и пропастей, в этом фильме хорошо показано, что значит быть единой командой и быть в стороне. В условиях дикой природы или в обычной жизни, без разницы, быть в команде намного лучше, чем быть в одного.Хоть в фильме всего пять персонажей, да и то подростков, у них все же отлично удалось держать зрителя у экрана. Совсем молодой Шон Эстин, известный больше по роли Сэма из «Властелина колец» сыграл просто отлично. Он сумел хорошо показать трансформацию Алана на протяжении всего похода из сопляка в мужчину, готового принимать ответственные решения. Кевин Бейкон великолепно раскрыл своего персонажа. Он далеко не злодей, хоть и использует в каком-то смысле варварские методы воспитания и обучения юных ребят. Просто его методы очень резкие, не позволяющие долго жевать сопли и сюсюкаться с юнцами. Надо сделать — сделай! Только так грубо и жестко можно преодолеть свои страхи и справится с трудностями. Поэтому для меня персонаж Бейкона не являлся каким-то беспощадным злодеем.«Лето большой воды» хороший пример, когда фильму не смотря на время, рейтинги и популярность действительно есть что сказать и показать. Так что если вас что-то отпугивает от просмотра, это еще далеко не повод проходить мимо фильма. Этот фильм точно заслуживает вашего внимания, а если вы любите приключенческие фильмы, связанные с природой, то уж подавно.9 из 10

Media Info

Полное имя : E:\Лето белой воды\Leto beloj vody.1987.WEB-DLRip.[pirat.ca].avi
Формат : AVI
Формат/Информация : Audio Video Interleave
Размер файла : 1,22 Гбайт
Продолжительность : 1 ч. 29 м.
Общий поток : 1943 Кбит/сек
Название фильма : Leto beloj vody.1987.WEB-DLRip.[pirat.ca]
Программа кодирования : VirtualDubMod 1.5.10.3 (build 2550/release)Видео
Идентификатор : 0
Формат : MPEG-4 Visual
Профиль формата : Advanced [email protected]/* */
Параметр BVOP формата : 1
Параметр QPel формата : Нет
Параметр GMC формата : Без точки перехода
Параметр матрицы формата : Выборочная
Идентификатор кодека : XVID
Идентификатор кодека/Подсказка : XviD
Продолжительность : 1 ч. 29 м.
Битрейт : 1742 Кбит/сек
Ширина : 720 пикселей
Высота : 304 пикселя
Соотношение сторон : 2,35:1
Частота кадров : 23,976 (24000/1001) кадра/сек
Цветовое пространство : YUV
Субдискретизация насыщенности : 4:2:0
Битовая глубина : 8 бит
Тип развёртки : Прогрессивная
Метод сжатия : С потерями
Бит/(Пиксели*Кадры) : 0.332
Размер потока : 1,09 Гбайт (90%)
Библиотека кодирования : XviD 73Аудио
Идентификатор : 1
Формат : AC-3
Формат/Информация : Audio Coding 3
Расширение режима : CM (complete main)
Параметр Endianness формата : Big
Идентификатор кодека : 2000
Продолжительность : 1 ч. 29 м.
Вид битрейта : Постоянный
Битрейт : 192 Кбит/сек
Каналы : 2 канала
Расположение каналов : Front: L R
Частота : 48,0 КГц
Частота кадров : 31,250 кадров/сек (1536 spf)
Метод сжатия : С потерями
Размер потока : 123 Мбайт (10%)
Выравнивание : Разделение по промежуткам
Продолжительность промежутка : 42 мс. (1,00 видеокадр)
Время предзагрузки промежутка : 500 мс.

Скриншот c названием фильма

Скриншоты

-Трейлер
Яндекс.Метрика
Рейтинг@Mail.ru