Страшные сказки / Il racconto dei racconti (Маттео Гарроне / Matteo Garrone) [2015 г., ужасы, фэнтези, мелодрама, BDRip] Dub [BD RUS / Novamedia 2015 ]

 

Создавать темы 02-Июл-2016 05:08

-Страшные сказки / Il racconto dei racconti-- Производство: Италия, Франция, Великобритания, Archimede, Le Pacte, Rai Cinema, ...
Год выпуска: 2015 г.
Жанр: ужасы, фэнтези, мелодрама
Продолжительность: 02:13:30Мировая премьера: 14 мая 2015
Российская премьера: 10 сентября 2015, «Cinema Prestige»
Перевод: Профессиональный (полное дублирование) [BD RUS / Novamedia 2015 ]
Режиссер: Маттео Гарроне / Matteo Garrone-В ролях: Сальма Хайек, Венсан Кассель, Тоби Джонс, Джон С. Райлли, Ширли Хендерсон, Стэйси Мартин, Джесси Кейв, Альба Рорвахер-Описание: Маги и волшебники, короли и королевы, красавицы-принцессы и страшилы-великаны населяют эту потрясающую готическую фантазию. Сластолюбивый Король Одинокого Утеса берет в жены прелестную деву, а она превращается в уродливую старуху. Отважный Король Долины Туманов отправляется на бой с драконом, поскольку волшебник предсказал, что королева понесет ребенка, если съест сердце дракона. Ну, а Король Диких Гор с любовью выращивает гигантскую блоху, а родную дочь без тени сожаления отдает в жены горному огру. За стенами величественных замков строятся коварные козни, даются безрассудные обеты, там страстно любят и жестоко убивают…-
Качество видео: BDRip
Контейнер: AVI
Видео кодек: XviD
Аудио кодек: AC3
Видео: 720x304 (2.37:1), 24 fps, XviD build 73 ~1885 kbps avg, 0.36 bit/pixel
Аудио: 48 kHz, AC3 Dolby Digital, 3/2 (L,C,R,l,r) + LFE ch, ~448 kbps
Cубтитры: отсутствуют

Доп. информация

Фильм является вольной интерпретацией «Сказки сказок» Джамбаттисты Базиле.
Это первый англоязычный фильм Маттео Гарроне.

Награды

Каннский кинофестиваль, 2015 год
Номинации (1):
Золотая пальмовая ветвь

Рецензия

Какая небесная радость — быть королём! Обнаружил ты поутру в своей постели старую жабу (вместо молодой красавицы) — стража! Выбросьте это земноводное в окно! Оп! И проблема решена, ведите новую… То ли дело мы — простые смертные, засыпаешь рядом с жабой (лелея мыслишку о том, что завтра она преобразится в красавицу), просыпаешься, дрожащей рукой сдёргиваешь одеяло — ап! Та же самая жаба, что и вчера, и никто не реагирует на твои истеричные вопли, а поскольку королевские апартаменты в которых ты проживаешь, расположены на первом этаже пятиэтажного хрущёвского замка, сбрасывать её из окна — абсолютно бесполезное занятие, какой упала, такой и вернулась, чуда не происходит.Кассель в роли похотливого короля сильно напоминает первого исполнителя роли Дартаньяна в отечественном кино — то же сморщенное личико старого мальчика, заплывшие от безбожного пьянства глазки, ни одна пенсионерка не может отказать такому красавцу, неудивительно, что дряхлые сёстры сладострастно стонут, заслышав его пропитый голос. А как вам сцена приготовления сестричек к грехопадению? Теперь понятно, откуда Шнуров слизал идею своих «Лабутенов».Вы обратили внимание на привередливость представителей средневековой элиты? Чем недовольна эта овечка Вайолет? Муж — человек серьёзный (никакого легкомыслия, пьянок с друзьями, погони за юбками — всё несёт в семью), самостоятельный, одарённый эстетически (с первого раза распознал запах блохи!), обладает просторным пентхаузом с видом на горы, а уж как он её любит! Чего тебе ещё надо, дура? Что? Он — людоед? Не знаю, не знаю, в фильме этого не видно, муженёк постоянно дубит чьи — то волосатые шкуры, если они принадлежат людям, то средневековые просторы были населены очень несимпатичными персонажами. Многие современные принцессы позавидовали бы Вайолетт.Вишенкой на торте является героиня сверходарённой Сальмы Хайек — какая страсть к деторождению! Наплевать на импотента — мужа, героически погибшего в неравной схватке с речным головастиком! Некромант напоминает работника клиники искусственного оплодотворения — такие же упыриные черты лица, расплывчатые, многозначительные формулировки (интересно, а полис он у королевы проверил — прикреплена ли она к районной поликлинике?Итог.Что здесь сказочного? Всё как в жизни. Вздорные дуры — принцессы, не ценящие своего счастья, похотливые царьки, женщины с неизменной тысячелетней сущностью, сеньор Гарроне — никакой не сказочник, он — грустный реалист.10 из 10

Media Info

Общее
Полное имя : F:\Страшные сказки\Strashnye skazki.2015.BDRip.[pirat.ca].avi
Формат : AVI
Формат/Информация : Audio Video Interleave
Профиль формата : OpenDML
Размер файла : 2,18 Гбайт
Продолжительность : 2 ч. 13 м.
Общий поток : 2340 Кбит/сек
Название фильма : Strashnye skazki.2015.BDRip.[pirat.ca]
Программа кодирования : VirtualDubMod 1.5.10.3 (build 2550/release)Видео
Идентификатор : 0
Формат : MPEG-4 Visual
Профиль формата : Advanced [email protected]/* */
Параметр BVOP формата : 2
Параметр QPel формата : Нет
Параметр GMC формата : Без точки перехода
Параметр матрицы формата : Выборочная
Идентификатор кодека : XVID
Идентификатор кодека/Подсказка : XviD
Продолжительность : 2 ч. 13 м.
Битрейт : 1880 Кбит/сек
Ширина : 720 пикселей
Высота : 304 пикселя
Соотношение сторон : 2,35:1
Частота кадров : 24,000 кадра/сек
Цветовое пространство : YUV
Субдискретизация насыщенности : 4:2:0
Битовая глубина : 8 бит
Тип развёртки : Прогрессивная
Метод сжатия : С потерями
Бит/(Пиксели*Кадры) : 0.358
Размер потока : 1,75 Гбайт (80%)
Библиотека кодирования : XviD 73Аудио
Идентификатор : 1
Формат : AC-3
Формат/Информация : Audio Coding 3
Расширение режима : CM (complete main)
Параметр Endianness формата : Big
Идентификатор кодека : 2000
Продолжительность : 2 ч. 13 м.
Вид битрейта : Постоянный
Битрейт : 448 Кбит/сек
Каналы : 6 каналов
Расположение каналов : Front: L C R, Side: L R, LFE
Частота : 48,0 КГц
Частота кадров : 31,250 кадров/сек (1536 spf)
Метод сжатия : С потерями
Размер потока : 427 Мбайт (19%)
Выравнивание : Разделение по промежуткам
Продолжительность промежутка : 42 мс. (1,00 видеокадр)
Время предзагрузки промежутка : 500 мс.

Скриншот c названием фильма

Скриншоты

-Трейлер
Яндекс.Метрика
Рейтинг@Mail.ru