Сабрина / Sabrina (Билли Уайлдер / Billy Wilder) [1954 г., драма, мелодрама, комедия, DVDRip] MVO [DVD Магия]

 

Создавать темы 02-Июл-2016 04:57

-Сабрина / Sabrina-- Производство: США, Paramount Pictures
Год выпуска: 1954 г.
Жанр: драма, мелодрама, комедия
Продолжительность: 01:48:52Мировая премьера: 9 сентября 1954
Дата выхода DVD: 9 декабря 2003, «Film Prestige»
Перевод: Профессиональный (многоголосый, закадровый) [DVD Магия]
Режиссер: Билли Уайлдер / Billy Wilder-В ролях: Хамфри Богарт (Linus Larrabee), Одри Хепберн (Sabrina Fairchild), Уильям Холден (David Larrabee), Уолтер Хэмпден (Oliver Larrabee), Джон Уильямс (Thomas Fairchild), Марта Хайер (Elizabeth Tyson), Джоан Вос (Gretchen Van Horn), Марсель Далио (Baron St. Fontanel), Марсель Хиллэр (The Professor), Нелла Уолкер (Maude Larrabee), Френсис К. Бушмен (Mr. Tyson), Эллен Корби (Miss McCardle)-Описание: В роскошной усадьбе на западном берегу Лонг-Айленда обитало семейство миллионеров Лэрраби. Отец, мать и два сына. Старший - Лайнус - умный, младший - Дэвид - красивый. В Дэвида была безответно влюблена юная дочь шофера семьи Сабрина. Чтобы «излечить» дочь от любовной лихорадки, отец отправляет её в Париж в школу поваров. Через несколько лет домой возвращается изысканная утонченная красавица. Её чувства не прошли, но теперь уже и Дэвид покорен ею. Семейные планы расширения бизнеса за счет удачной женитьбы непутёвого сына под угрозой... Старший брат готов мужественно принять удар на себя и поухаживать за навязчивой девчонкой...-
Качество видео: DVDRip
Контейнер: AVI
Видео кодек: XviD
Аудио кодек: AC3
Видео: 720x544 (1.32:1), 25 fps, XviD build 50 ~1406 kbps avg, 0.14 bit/pixel
Аудио: 48 kHz, AC3 Dolby Digital, 3/2 (L,C,R,l,r) ch, ~384 kbps
Cубтитры: отсутствуют

Доп. информация

Хамфри Богарт в последнюю минуту заменил Кэри Гранта.
Богарт и его партнер по фильму Уильям Холден не терпели друг друга. Дело в том, что Богарт не одобрял выбор на главную женскую роль Одри Хепберн, поскольку хотел, чтобы Сабрину сыграла его жена Лорен Бэколл. Холден же влюбился в Хепберн. На вопрос, как ему работалось с Хепберн, Богарт ответил: «Нормально, если не считать того, что приходилось делать по 20 дублей».
Богарт заработал за свою роль $300 000, Холден - $150 000, а гонорар Хепберн составил всего $15 000.
Хотя «Оскар» за лучший костюм достался Эдит Хэд, автором большинства нарядов Одри Хепберн был французский модельер Юбер де Живанши. При этом актриса сама их выбирала. На этой картине Хепберн впервые работала с Живанши; впоследствии на протяжении своей карьеры она одевалась только у него. До «Сабрины» Живанши никогда не слышал об Одри Хепберн и, когда ему предложили работать на этой картине, думал, что речь идет о Кэтрин Хепберн.
«Сабрина» стала первой из четырех картин подряд, в которых Одри Хепберн пришлось играть героинь, имевших романтические отношения с мужчинами, годившимися им по возрасту в отцы.
В театре Сабрина и Лаймус смотрят спектакль «Зуд седьмого года». По этой пьесе режиссер фильма Билли Уайлдер снял в 1955 году свою следующую картину.
Во время съемок у Хепберн и Холдена завязался роман, однако, когда актриса узнала, что у Холдена не может быть детей, она разорвала с ним отношения.
Поместье, в котором проходили съемки, принадлежало тогдашнему руководителю студии Paramount Барни Балабану.
Хамфри Богарт всегда прекращал съемки в 18:00, так как в это время он начинал пить виски с содовой. Если же кто-то пытался заставить его работать после шести вечера, он, не говоря ни слова, гордо удалялся.
Как и в случае с фильмом «Бульвар Сансет» (1950), съемки «Сабрины» начались, хотя сценарий еще не был завершен. Над ним до полного изнеможения ежедневно трудились кинодраматург Эрнест Леман и режиссер Билли Уайлдер. Однажды, когда Леман не смог дать Богарту копию вновь переписанной сцены, актер пришел в ярость. Тогда Уайлдер объявил, что съемки не продолжатся до тех пор, пока Богарт не извинится перед сценаристом. И лишь после того, как Богарт пригласил Лемана к себе в гримерку, съемки были возобновлены.
Работа над сценарием отнимала столько времени, что Уайлдер не успевал совмещать ее со съемками. Однажды, чтобы успеть дописать одну из сцен, он даже попросил Одри Хепберн притвориться больной.

Награды

Оскар, 1955 год
Победитель (1):
Лучшая работа художника по костюмам (ч/б фильмы)
Номинации (5):
Лучшая женская роль (Одри Хепберн)
Лучший режиссер (Билли Уайлдер)
Лучший адаптированный сценарий
Лучшая работа оператора (ч/б фильмы)
Лучшая работа художника (ч/б фильмы)
Золотой глобус, 1955 год
Победитель (1):
Лучший сценарий
Британская академия, 1955 год
Номинации (1):
Лучшая британская актриса (Одри Хепберн)

Media Info

Общее
Полное имя : J:\Сабрина\Sabrina.1954.DVDRip.[pirat.ca].avi
Формат : AVI
Формат/Информация : Audio Video Interleave
Размер файла : 1,37 Гбайт
Продолжительность : 1 ч. 48 м.
Общий поток : 1797 Кбит/сек
Название фильма : Sabrina.1954.DVDRip.[pirat.ca]
Программа кодирования : VirtualDubMod 1.5.4.1 (build 2178/release)Видео
Идентификатор : 0
Формат : MPEG-4 Visual
Профиль формата : Advanced [email protected]/* */
Параметр BVOP формата : 1
Параметр QPel формата : Нет
Параметр GMC формата : Без точки перехода
Параметр матрицы формата : Выборочная
Идентификатор кодека : XVID
Идентификатор кодека/Подсказка : XviD
Продолжительность : 1 ч. 48 м.
Битрейт : 1406 Кбит/сек
Ширина : 720 пикселей
Высота : 544 пикселя
Соотношение сторон : 4:3
Частота кадров : 25,000 кадров/сек
Цветовое пространство : YUV
Субдискретизация насыщенности : 4:2:0
Битовая глубина : 8 бит
Тип развёртки : Прогрессивная
Метод сжатия : С потерями
Бит/(Пиксели*Кадры) : 0.144
Размер потока : 1,07 Гбайт (78%)
Библиотека кодирования : XviD 1.2.1 (UTC 2008-12-04)Аудио
Идентификатор : 1
Формат : AC-3
Формат/Информация : Audio Coding 3
Расширение режима : CM (complete main)
Параметр Endianness формата : Big
Идентификатор кодека : 2000
Продолжительность : 1 ч. 48 м.
Вид битрейта : Постоянный
Битрейт : 384 Кбит/сек
Каналы : 6 каналов
Channel(s)_Original : 5 каналов
Расположение каналов : Front: L C R, Side: L R
Частота : 48,0 КГц
Частота кадров : 31,250 кадров/сек (1536 spf)
Метод сжатия : С потерями
Размер потока : 299 Мбайт (21%)
Выравнивание : Разделение по промежуткам
Продолжительность промежутка : 96 мс. (2,40 видеокадра)
Время предзагрузки промежутка : 96 мс.

Скриншот c названием фильма

Скриншоты

-Трейлер
Яндекс.Метрика
Рейтинг@Mail.ru