Высотка / High-Rise (Бен Уитли / Ben Wheatle) [2015 г., драма, WEB-DL, 720p] Dub (iTunes) + Original (Eng) + Sub (Eng)

 

Создавать темы 02-Июл-2016 04:50

-Высотка / High-Rise
«Добро пожаловать в мир будущего»
-- Производство: Великобритания, Бельгия
Год выпуска: 2015 г.
Жанр: драма
Продолжительность: 01:58:50Перевод: Профессиональный (полное дублирование) [ iTunes]
Оригинальный аудиопоток: английскийРежиссер: Бен Уитли / Ben Wheatle-В ролях: Том Хиддлстон, Джереми Айронс, Сиенна Миллер, Люк Эванс, Элизабет Мосс, Джеймс Пьюрфой, Кили Хоуз, Питер Фердинандо, Сиенна Гиллори, Рис Шерсмит-Описание: Элитная высотка - идеальная модель мира будущего. Здесь есть всё для комфортной и роскошной жизни. Но зависть, соперничество, жажда острых ощущений постепенно разжигают открытую вражду между жителями высотки, заставляя забыть о законах морали даже лучших из них.- -Качество видео: WEB-DL
Контейнер: MKV
Стандарт разрешения: 720p
Видео кодек: H.264/AVC
Аудио кодек: AC3
Видео: 1280x532 at 23.976 fps, ~4000 Kbps avg
Аудио: Russian: 48 kHz, AC3, 3/2 (L,C,R,l,r) + LFE ch, ~384.00 kbps avg |Дубляж, iTunes Russia|
Аудио #2: English: 48 kHz, AC3, 3/2 (L,C,R,l,r) + LFE ch, ~384.00 kbps avg
Cубтитры: английские

Media Info

Код:
Format : Matroska
Format version : Version 4 / Version 2
File size : 3.96 GiB
Duration : 1h 58mn
Overall bit rate : 4 773 Kbps
Movie name : High-Rise 2015
Encoded date : UTC 2016-06-28 08:41:16
Writing application : mkvmerge v6.0.0 ('Coming Up For Air') built on Jan 20 2013 09:52:00
Writing library : libebml v1.3.0 + libmatroska v1.4.0
DURATION : 01:52:48.960000000
NUMBER_OF_FRAMES : 1134
NUMBER_OF_BYTES : 36381
_STATISTICS_WRITING_APP : mkvmerge v7.1.0 ('Good Love') 64bit built on Jul 27 2014 13:06:55
_STATISTICS_WRITING_DATE_UT : 2016-06-27 14:54:19
_STATISTICS_TAGS : BPS DURATION NUMBER_OF_FRAMES NUMBER_OF_BYTESVideo
ID : 1
Format : AVC
Format/Info : Advanced Video Codec
Format profile : [email protected]/* */
Format settings, CABAC : No
Format settings, ReFrames : 2 frames
Codec ID : V_MPEG4/ISO/AVC
Duration : 1h 58mn
Bit rate : 3 910 Kbps
Width : 1 280 pixels
Height : 532 pixels
Display aspect ratio : 2.40:1
Frame rate mode : Constant
Frame rate : 23.976 fps
Color space : YUV
Chroma subsampling : 4:2:0
Bit depth : 8 bits
Scan type : Progressive
Bits/(Pixel*Frame) : 0.239
Stream size : 3.25 GiB (82%)
Title : High-Rise 2015
Language : English
Default : Yes
Forced : No
Color primaries : BT.709
Transfer characteristics : BT.709
Matrix coefficients : BT.709
Color range : LimitedAudio #1
ID : 2
Format : AC-3
Format/Info : Audio Coding 3
Mode extension : CM (complete main)
Format settings, Endianness : Big
Codec ID : A_AC3
Duration : 1h 58mn
Bit rate mode : Constant
Bit rate : 384 Kbps
Channel(s) : 6 channels
Channel positions : Front: L C R, Side: L R, LFE
Sampling rate : 48.0 KHz
Bit depth : 16 bits
Compression mode : Lossy
Stream size : 326 MiB (8%)
Title : [DUB] DD 5.1 @ 384 kbps
Language : Russian
Default : Yes
Forced : NoAudio #2
ID : 3
Format : AC-3
Format/Info : Audio Coding 3
Mode extension : CM (complete main)
Format settings, Endianness : Big
Codec ID : A_AC3
Duration : 1h 58mn
Bit rate mode : Constant
Bit rate : 384 Kbps
Channel(s) : 6 channels
Channel positions : Front: L C R, Side: L R, LFE
Sampling rate : 48.0 KHz
Bit depth : 16 bits
Compression mode : Lossy
Stream size : 326 MiB (8%)
Title : [ORIGINAL] DD 5.1 @ 384 kbps
Language : English
Default : No
Forced : NoText
ID : 4
Format : UTF-8
Codec ID : S_TEXT/UTF8
Codec ID/Info : UTF-8 Plain Text
Title : Full-length
Language : English
Default : No
Forced : NoMenu
00:00:00.000 : en:1
00:02:39.701 : en:2
00:13:18.631 : en:3
00:20:10.000 : en:4
00:27:40.075 : en:5
00:35:20.076 : en:6
00:44:45.766 : en:7
00:50:14.052 : en:8
00:57:39.914 : en:9
01:04:54.515 : en:10
01:13:29.571 : en:11
01:21:39.185 : en:12
01:30:36.513 : en:13
01:40:59.886 : en:14
01:44:20.002 : en:15
01:52:40.252 : en:16

Скриншот c названием фильма

Скриншоты

Яндекс.Метрика
Рейтинг@Mail.ru