Мульт Личности: Новогодняя Дискотека 80-х (Василий Пичул, Юрий Владовский) [2013 г., ТВ-шоу, юмор, HDTVRip, 1080p]

 

Создавать темы 01-Янв-2014 06:37

-Мульт Личности: Новогодняя Дискотека 80-х-- Производство: Россия, Первый канал
Режиссер: Василий Пичул, Юрий Владовский
Жанр: ТВ-шоу, юмор
Год выпуска: 2013 г.
Продолжительность: 00:15:21
Перевод: Не требуется
Описание: Любимые мульти-личности решили поздравить всех в новый год в стиле Дискотеки 80-х и им это удалось!
Участники проекта, шаржированные образы многих знаменитых персон России и мира, тех, кто задает тон в политике, экономике, спорте и шоу бизнесе. Реальные прототипы героев «Мульта личности» слишком хорошо всем известны, предсказуемы и даже привычны в своих словах и делах. Их мультяшные образы совсем другое дело. Они постоянно оказываются в немыслимых для своих реальных прототипов жизненных ситуациях, и это придает шоу особую остроту и зрелищность.

Качество видео: HDTVRip
Контейнер: MKV
Стандарт разрешения: 1080p
Видео кодек: H.264
Аудио кодек: AC3
Видео: AVC, 1920x1080 [email protected] (16:9), 25.000 fps, 10.4 Mbps (0.200 bit/pixel)
Аудио: Русский, AC3, 48.0 KHz, 2 ch, 384 Kbps, CBR
Cубтитры: отсутствуют

Рецензия

Замечательный проект Первого канала. И пусть тема не новая, но в 3D еще не было. Данное пародийное шоу самое интересное, что практически не врет, просто преподносит все с иронией. Все персонажи очень легко узнаются. Озвучивание делает многое в этом проекте. Нарисовать, что бы узнали, особой проблемы не составит, а вот сделать качественный, похожий голос той или иной личности, вот тут гораздо сложнее, с чем создатели справляются превосходно.
В просторах политики и шоубизнеса всегда можно будет найти стоящую и интересную тему для высмеивания. От чего я думаю, что проект не заглохнет от нехватки тем. Персонажей можно включить в проект очень много. Хотелось бы, чтобы появились Дмитрий Медведев и Владимир Путин, с ними было бы еще веселее. И как говорят, что возможно это произойдет. Ограничений в проекте нет, абсолютно никаких.
Очень забавные шутки на тему шоубизнеса и политики. Спортивная тема хоть и очень актуальна сейчас, но мне кажется, ее стоит прикрыть на время, так как уже не смешно. Порой высмеивают довольно жестко, и смело. А реакция настоящих героев на это одна и та же, все они очень рады, что все еще знамениты.
В общем, скажу, что данного проекта как-то не хватало. Есть «Прожектор», «Большая разница» вот теперь и «Мульт личности» очень кстати на мой взгляд. К просмотру рекомендуются, тридцать минут хорошего настроения обеспечено.
10 из 10

Media Info

General
ID : 1
Complete name : D:\МУЛЬТЫ\Мульт-Дискотека 2013.01-01.ts
Format : MPEG-TS
File size : 1.21 GiB
Duration : 15mn 21s
Overall bit rate : 11.3 Mbps
Maximum Overall bit rate : 35.5 Mbps
Video
ID : 4113 (0x1011)
Menu ID : 1 (0x1)
Format : AVC
Format/Info : Advanced Video Codec
Format profile : [email protected]
Format settings, CABAC : Yes
Format settings, ReFrames : 3 frames
Duration : 15mn 21s
Bit rate : 10.1 Mbps
Width : 1 920 pixels
Height : 1 080 pixels
Display aspect ratio : 16/9
Frame rate : 25.000 fps
Standard : Component
Resolution : 24 bits
Colorimetry : 4:2:0
Scan type : Interlaced
Scan order : Top Field First
Bits/(Pixel*Frame) : 0.196
Stream size : 1.09 GiB (90%)
Audio
ID : 4352 (0x1100)
Menu ID : 1 (0x1)
Format : AC-3
Format/Info : Audio Coding 3
Duration : 15mn 21s
Bit rate mode : Constant
Bit rate : 384 Kbps
Channel(s) : 2 channels
Channel positions : L R
Sampling rate : 48.0 KHz
Stream size : 42.2 MiB (3%)
Language : Russian

Скриншот c названием мультфильма

Скриншоты

Яндекс.Метрика
Рейтинг@Mail.ru